<?xml version="1.0" standalone="no"?>
<!DOCTYPE svg PUBLIC "-//W3C//DTD SVG 1.1//EN" "http://www.w3.org/Graphics/SVG/1.1/DTD/svg11.dtd" >
<!--
2013-9-30: Created.
-->
<svg>
<metadata>
Created by iconfont
</metadata>
<defs>

<font id="iconfont" horiz-adv-x="1024" >
  <font-face
    font-family="iconfont"
    font-weight="500"
    font-stretch="normal"
    units-per-em="1024"
    ascent="896"
    descent="-128"
  />
    <missing-glyph />
    
    <glyph glyph-name="target-eye" unicode="&#59037;" d="M208.237 405.115l13.672 3.318c-0.981-10.497-1.612-21.123-1.612-31.876 0-184.972 150.472-335.452 335.46-335.452 184.957 0 335.445 150.48 335.445 335.452 0 184.989-150.488 335.468-335.445 335.468-56.214 0-109.158-14.072-155.728-38.593l-1.492 10.897-65.332 44.496c64.463 40.842 140.613 64.774 222.553 64.774 230.315 0 417.042-186.696 417.042-417.042 0-230.346-186.726-417.058-417.041-417.058-230.346 0-417.066 186.712-417.066 417.058 0 24.41 2.521 48.197 6.55 71.443l62.994-42.885zM555.759 530.706c-9.612 0-18.977-1.020-28.111-2.68l-83.385 56.271c33.185 17.836 71.14 28 111.496 28 130.179 0 235.733-105.521 235.733-235.739 0-130.202-105.554-235.722-235.733-235.722-130.201 0-235.754 105.52-235.754 235.722 0 7.163 0.455 14.248 1.085 21.267l84.931-57.292c16.305-67.629 77.155-118.109 149.737-118.109 84.989 0 154.133 69.13 154.133 154.134 0.001 85.020-69.143 154.149-154.132 154.149v0zM360.552 660.861l10.378-76.341 223.136-150.527c32.355-22.049 40.675-66.177 18.659-98.501-22.065-32.354-66.17-40.747-98.526-18.682l-223.128 150.48-74.873-18.267-152.658 104.005c-9.398 6.413-14.047 17.837-11.767 28.989 2.266 11.152 11.024 19.848 22.184 22.065l83.018 16.465c15.117 3.015 25.039 17.566 22.295 32.739l-15.045 83.264c-2.018 11.2 2.872 22.512 12.42 28.702 9.549 6.19 21.874 6.062 31.278-0.367l152.628-104.022z"  horiz-adv-x="1024" />

    
    <glyph glyph-name="04" unicode="&#58896;" d="M1016.372638 657.399812l0-10.400323c-0.199543-0.412848-0.557344-0.813654-0.583147-1.233383-0.244268-4.549926-0.254589-9.110173-0.681199-13.641177-0.682919-7.285042-1.186937-14.632012-2.544174-21.810402-2.638785-13.993818-6.129069-27.786373-11.219137-41.148878-5.418627-14.217444-11.860771-27.923989-19.857976-40.880527-10.646311-17.241554-22.952614-33.177476-38.018116-46.810052-6.865314-6.209918-13.821798-12.349308-21.120602-18.027684-16.102782-12.547131-33.958446-22.149281-52.799785-29.859212-11.982906-4.902567-24.394141-8.551109-37.075447-11.367074-12.295982-2.724795-24.659051-4.543045-37.256068-4.622174-11.822927-0.079129-23.656175-0.201263-35.473942 0.048166-7.997205 0.163419-14.449671-2.883053-19.899261-8.349845-34.464185-34.612122-68.807956-69.351539-103.332348-103.900013-126.336568-126.400215-252.726461-252.759145-379.109475-379.109475-3.655423-3.655423-7.462223-7.173229-11.269023-10.660073-9.431851-8.640559-19.911302-15.73638-31.321382-21.548932-12.631421-6.423223-25.802983-11.083241-39.884532-13.06319-3.605537-0.504018-7.18183-1.202419-10.777046-1.807929L135.395135-120.792367c-2.9381 0.409407-5.900282 0.68808-8.812579 1.259186-14.552883 2.85209-28.529499 7.297084-41.544524 14.638893-16.159548 9.125655-30.079398 20.84709-41.520441 35.387932-11.207096 14.238086-19.673915 30.022631-24.946324 47.413842-4.389948 14.466873-6.421502 29.286386-5.44959 44.379411 0.481656 7.475984 1.388201 14.991533 2.901976 22.319581 2.869292 13.856202 8.112458 26.857465 15.160113 39.17409 6.454186 11.282785 13.709985 22.009945 22.863164 31.168284 161.12759 161.292729 322.366994 322.487408 483.580594 483.701008 0.86526 0.86354 1.752883 1.709878 2.59234 2.59578 5.769547 6.125628 7.551673 13.525924 6.875635 21.695149-0.796452 9.729445-1.981669 19.441688-2.284424 29.191775-0.225346 7.140546 0.376724 14.35334 1.164575 21.468082 1.159414 10.338395 2.150249 20.762801 4.391668 30.894772 4.75807 21.497326 12.428437 41.988335 23.052385 61.381857 10.0322 18.316678 22.302379 34.981965 36.653998 50.045747 6.891117 7.229996 14.262169 14.152076 22.168203 20.23986 9.467975 7.285042 19.618868 13.732348 29.704395 20.172772 12.168687 7.773579 25.305846 13.725467 38.996909 18.208305 11.32923 3.705308 22.809837 7.248918 34.488268 9.560865 11.864212 2.348071 24.008816 3.614138 36.093213 4.415751 13.424432 0.894503 26.780056-1.076845 40.054831-2.986265 7.620481-1.095767 14.740384-3.775837 20.415321-9.230587 9.16522-8.81946 10.777046-20.988147 6.411181-32.68894-3.381911-9.043086-9.318317-16.34189-15.941083-23.079909-12.97202-13.190485-26.126381-26.195189-39.208493-39.2687-13.914689-13.916409-27.853461-27.807015-41.732025-41.757828-6.113587-6.14283-11.957103-12.529929-16.378014-20.047198-6.732858-11.444483-9.321758-23.552963-6.220239-36.733127 2.828007-12.029351 9.474856-21.856847 17.884908-30.401075 17.356807-17.632039 35.152264-34.834028 52.710335-52.278565 5.778148-5.735143 12.424997-10.138852 19.784008-13.481199 8.30168-3.784438 17.167585-4.983416 26.043811-3.619298 12.867088 1.971348 23.577046 8.613036 32.721623 17.668163 17.250155 17.071254 34.273243 34.373014 51.533719 51.427066 14.102191 13.933611 28.168257 27.915388 42.741782 41.357022 7.565435 6.982287 16.821825 10.783927 27.574788 8.659481 11.747238-2.325709 21.170488-8.695605 23.938288-22.106276 1.286709-6.258084 1.29359-12.770757 1.919742-19.164736C1015.885822 659.649832 1016.167934 658.533423 1016.372638 657.399812L1016.372638 657.399812zM147.042602 83.541459c-39.26354 0.486816-68.789034-32.324257-70.978847-65.72708-2.993146-45.554307 33.356377-76.689907 69.587206-77.32122 41.1678-0.715603 72.420374 32.482516 72.816019 70.954764C218.872947 51.248166 186.526327 84.119446 147.042602 83.541459L147.042602 83.541459zM147.042602 83.541459M139.06948 889.270582c3.947856-0.808493 7.973122-1.369278 11.834968-2.482247 6.677812-1.928343 13.436474-3.763795 19.837334-6.411181 14.87628-6.154872 27.308158-15.896358 38.539336-27.318479 6.562559-6.65889 13.40551-13.044268 20.119446-19.553501 6.567719-6.366456 13.178444-12.686467 19.697998-19.107969 17.478941-17.224352 34.987125-34.4229 52.350813-51.767666 14.048864-14.029942 27.908507-28.243946 41.823196-42.402903 8.915791-9.067168 17.788577-18.177342 26.675124-27.275474 8.458218-8.654321 16.912996-17.320683 25.366053-25.980164 8.38597-8.587233 16.754737-17.186507 25.152748-25.763419 10.973149-11.196775 21.985862-22.336783 32.921167-33.564521 3.744873-3.844645 7.297084-7.87163 11.091842-11.974305-12.447359-12.168687-24.963526-24.406182-37.675796-36.831179-4.231689 4.677221-8.422094 9.311437-12.617659 13.938772-0.614111 0.681199-1.259186 1.333154-1.909421 1.976509-16.073539 16.082139-32.17288 32.136756-48.227496 48.239538-65.305631 65.494853-130.575138 131.02927-195.965058 196.444994-4.622174 4.627335-9.474856 9.208225-16.049456 11.372235-8.99492 2.969063-17.303481-5.296492-18.493858-11.724876-1.407123-7.601559 2.619863-13.130278 7.321167-18.056928 9.006961-9.438731 18.390646-18.517941 27.622954-27.750249 72.026448-72.024728 144.037414-144.063217 216.094826-216.058702 7.114743-7.109582 14.504717-13.943932 21.96694-21.1034-15.160113-14.554603-30.132724-28.925144-45.483779-43.668969-1.429485 1.940384-2.724795 3.763795-4.087193 5.542481-1.465609 1.90254-2.828007 3.922053-4.517242 5.613009-62.770058 62.830265-125.593442 125.595162-188.351458 188.435748-21.089638 21.115441-41.952211 42.46311-63.091735 63.528666-3.282139 3.276979-7.254079 6.044779-11.312028 8.325763-10.646311 5.989733-21.096519-2.688671-22.095955-12.388872-0.443811-4.341782 1.81309-8.349845 4.312539-11.896896 1.506894-2.127886 3.36987-4.032146 5.217363-5.886521 84.780003-84.804085 169.558285-169.59613 254.386453-254.343448 3.332025-3.332025 7.114743-6.2254 10.568902-9.225427-8.21739-7.923236-16.212875-15.708856-24.297809-23.398145-4.617014-4.383067-9.421529-8.573471-14.048864-12.946217-1.460449-1.374439-2.329149-0.875581-3.526408 0.306195-7.109582 6.982287-14.365381 13.811477-21.414756 20.853971-77.6687 77.627416-155.339121 155.258272-232.916651 232.976858-8.093536 8.107297-14.633732 17.490982-20.306948 27.483618-6.617605 11.652627-10.863056 24.12579-13.634296 37.159737-0.572826 2.705873-0.913426 5.468512-1.362398 8.205349l0 23.859159c0.218465 1.429485 0.378444 2.869292 0.662277 4.281575 1.928343 9.566026 4.362424 18.925628 8.332643 27.946351 5.372181 12.204811 12.447359 23.243328 21.268539 33.103508 8.210509 9.175541 17.516785 17.155544 28.207822 23.463513 11.341271 6.689854 23.406746 11.408359 36.318559 13.988657 3.264938 0.650235 6.550517 1.228222 9.827496 1.835452C123.16108 889.270582 131.11528 889.270582 139.06948 889.270582L139.06948 889.270582zM139.06948 889.270582M620.484344 221.245101c18.860261 18.858541 37.455611 37.457331 56.351996 56.353716 0.823975-0.584868 1.868136-1.138772 2.68179-1.924903 7.61188-7.345249 15.254724-14.649214 22.74275-22.120038 29.585701-29.518613 59.149039-59.07163 88.672813-88.667652 9.120495-9.144577 18.041446-18.485257 27.117215-27.684881 5.61817-5.692138 11.810886-10.677275 19.531138-13.159522 3.953017-1.269507 8.12622-2.045316 12.259858-2.50977 11.809165-1.324553 22.646418-5.315415 32.931488-11.114205 9.712243-5.466792 17.893509-12.824083 25.161349-21.082758 5.332617-6.067142 10.021879-12.736353 14.621691-19.395243 11.339551-16.43306 22.732428-32.842037 33.624728-49.572692 12.180728-18.731246 23.86948-37.780728 35.704448-56.730439 4.653138-7.451902 9.354442-14.87972 13.606773-22.553528 6.39742-11.561457 8.532187-24.610886 0.356081-35.690687-5.471953-7.419218-12.830964-13.009864-21.344228-16.610241-4.959333-2.090042-10.236904-0.557344-15.332133 0.560785-9.846418 2.16401-18.039726 7.969681-26.857465 12.344147-6.701895 3.330305-13.152641 7.166349-19.617148 10.949066-9.646875 5.643973-19.340196 11.215697-28.756565 17.232953-10.849294 6.92036-21.576455 14.078108-32.067948 21.545491-10.746083 7.649724-21.313264 15.586722-31.631017 23.810993-8.816019 7.011531-17.55979 14.198522-25.643005 22.027147-13.773633 13.341863-22.300659 29.83513-26.817901 48.43392-1.407123 5.788469-2.616423 11.635425-4.223088 17.363688-1.658272 5.936406-5.367021 10.758124-9.633114 15.027658-46.95799 47.040559-93.974466 94.026072-140.985781 141.021906C622.152936 219.880984 621.270474 220.560462 620.484344 221.245101L620.484344 221.245101zM620.484344 221.245101"  horiz-adv-x="1024" />

    
    <glyph glyph-name="yuyan" unicode="&#58882;" d="M1007.696 383.76C1007.696 657.52 785.768 879.448 512 879.448S16.304 657.52 16.304 383.76c0-272.576 220.008-493.752 492.128-495.672C509.624-111.968 510.816-112 512-112s2.376 0.032 3.56 0.08C787.688-110 1007.696 111.184 1007.696 383.76zM512-16.056C512-16.056 512-16.056 512-16.056 512-16.056 512-16.056 512-16.056c-32.52 0.008-95.52 83.992-131.984 207.872l263.96 0C607.52 67.936 544.52-16.056 512-16.056zM359.072 287.752c-4.448 30.736-6.976 62.864-6.976 95.944 0 33.072 2.544 65.208 7.016 95.944l305.76 0c4.48-30.736 7.016-62.872 7.016-95.944s-2.528-65.208-6.976-95.944L359.072 287.752zM112.248 383.696c0 33.072 4.024 65.208 11.592 95.944l138.232 0c-3.832-31.04-5.912-63.12-5.912-95.944s2.072-64.904 5.896-95.944L123.84 287.752C116.264 318.488 112.248 350.624 112.248 383.696zM512 783.448c31.976 0 95.176-83.992 131.824-207.872L380.176 575.576C416.824 699.456 480.024 783.448 512 783.448zM761.936 479.64l138.232 0c7.568-30.736 11.592-62.872 11.592-95.944s-4.024-65.208-11.592-95.944L761.944 287.752c3.832 31.04 5.896 63.12 5.896 95.944C767.84 416.52 765.768 448.6 761.936 479.64zM862.768 575.576 743.88 575.576c-17.048 66.752-42.016 126.064-70.992 174.168C753.736 714.168 820.56 652.576 862.768 575.576zM351.112 749.752c-28.976-48.104-53.936-107.424-70.992-174.168L161.232 575.584C203.44 652.576 270.264 714.168 351.112 749.752zM161.232 191.816l118.856 0c17.024-66.72 41.944-126.016 70.888-174.112C270.192 53.296 203.416 114.856 161.232 191.816zM673.016 17.704c28.944 48.096 53.872 107.392 70.888 174.112l118.856 0C820.584 114.856 753.808 53.296 673.016 17.704z"  horiz-adv-x="1024" />

    
    <glyph glyph-name="skype" unicode="&#59404;" d="M743.428571 288.571429q0 28.571429-11.142857 52.285714t-27.714286 39.142857-41.714286 28-47.142857 19.428571-50 13.142857l-59.428571 13.714286q-17.142857 4-25.142857 6t-20 6.571429-17.142857 9.142857-9.428571 12-4.285714 17.142857q0 44 82.285714 44 24.571429 0 44-6.857143t30.857143-16.285714 21.714286-19.142857 22.857143-16.571429 27.428571-6.857143q26.857143 0 43.142857 18.285714t16.285714 44q0 31.428571-32 56.857143t-81.142857 38.571429-104 13.142857q-38.857143 0-75.428571-8.857143t-68.285714-26.857143-50.857143-49.714286-19.142857-73.428571q0-34.857143 10.857143-60.857143t32-43.142857 45.714286-27.714286 58.857143-18.571429l83.428571-20.571429q51.428571-12.571429 64-20.571429 18.285714-11.428571 18.285714-34.285714 0-22.285714-22.857143-36.857143t-60-14.571429q-29.142857 0-52.285714 9.142857t-37.142857 22-26 25.714286-26.285714 22-30.857143 9.142857q-28.571429 0-43.142857-17.142857t-14.571429-42.857143q0-52.571429 69.714286-90t166.285714-37.428571q41.714286 0 80 10.571429t70 30.571429 50.571429 53.428571 18.857143 75.142857zm207.428571-124q0-90.857143-64.285714-155.142857t-155.142857-64.285714q-74.285714 0-133.714286 45.714286-44-9.142857-85.714286-9.142857-81.714286 0-156.285714 31.714286t-128.571429 85.714286-85.714286 128.571429-31.714286 156.285714q0 41.714286 9.142857 85.714286-45.714286 59.428571-45.714286 133.714286 0 90.857143 64.285714 155.142857t155.142857 64.285714q74.285714 0 133.714286-45.714286 44 9.142857 85.714286 9.142857 81.714286 0 156.285714-31.714286t128.571429-85.714286 85.714286-128.571429 31.714286-156.285714q0-41.714286-9.142857-85.714286 45.714286-59.428571 45.714286-133.714286z"  horiz-adv-x="1024" />

    
    <glyph glyph-name="dianhua" unicode="&#58888;" d="M207.074161 896C151.399128 896 17.785421 797.477937 17.785421 707.276246c0-263.662242 487.136933-765.997424 790.552874-765.997424 83.510099 0 189.293643 87.417205 189.293643 188.723754 0 34.683531-217.126257 188.723754-267.23967 188.723754-51.492175 0-89.072945-44.402273-133.608805-44.402273-44.538311 0-244.963774 195.655558-244.963774 244.24069 0 48.547139 44.540762 72.141744 44.540762 122.101961C396.360451 676.749836 262.744292 896 207.074161 896L207.074161 896 207.074161 896zM1006.214579-128"  horiz-adv-x="1024" />

    
    <glyph glyph-name="youshi" unicode="&#59212;" d="M741.697961 450.693981c-1.954515 5.833869-6.999414 10.107195-13.097296 11.045567L589.786109 483.166557l-62.029752 132.798539c-2.695389 5.7694-8.479115 9.467629-14.855336 9.482979l-0.033769 0c-6.341429 0-12.126178-3.663436-14.853289-9.414417l-62.662155-132.663462L296.113603 462.524424c-6.014994-1.035586-10.960633-5.305843-12.850679-11.106965-1.906419-5.783727-0.410346-12.158924 3.828188-16.530488l100.875478-103.769388-24.070208-146.212036c-1.019213-6.192026 1.591241-12.455683 6.734378-16.08535 5.128811-3.631714 11.897981-4.027733 17.401322-0.985444l124.177184 68.307735 123.914194-68.735477c2.480494-1.38351 5.226025-2.070148 7.968485-2.070148 3.319605 0 6.619768 0.985444 9.431813 3.007497 5.142114 3.615341 7.788383 9.859555 6.785543 16.068977l-23.580045 146.280598 101.125165 103.322204C742.143099 438.404074 743.636103 444.861136 741.697961 450.693981L741.697961 450.693981 741.697961 450.693981M607.448374 347.733005c-3.628644-3.714602-5.308913-8.955976-4.468778-14.100136l19.519566-121.06838-102.271268 56.721863c-4.928243 2.75781-10.943236 2.75781-15.886829 0.033769l-102.503559-56.395428 19.930935 121.023354c0.839111 5.125741-0.802272 10.364045-4.435009 14.113439l-84.903715 87.335091 116.151393 16.71673c1.157359 0.199545 2.260483 0.517793 3.309372 0.936325 4.050246 1.38658 7.556093 4.341888 9.531074 8.525164l51.382251 108.778472 50.937113-109.059881c2.334161-4.964058 6.967692-8.444323 12.389168-9.280364l115.879194-17.879206L607.448374 347.733005 607.448374 347.733005 607.448374 347.733005M607.448374 347.733005 607.448374 347.733005zM512.053724 831.658599c97.486288-75.151607 202.429409-127.47223 382.497531-127.47223l0-330.288448c0-157.512407-202.402803-435.596889-382.497531-435.596889-180.069145 0-382.610094 278.084483-382.610094 435.596889L129.443629 704.18637C309.402257 704.18637 414.456918 756.506992 512.053724 831.658599L512.053724 831.658599 512.053724 831.658599zM512.044514 757.384989C430.674275 694.729997 343.088474 651.109524 193.053366 651.109524l0-275.369651c0-131.321908 168.864966-363.164207 318.991148-363.164207 150.148695 0 318.895981 231.843322 318.895981 363.164207L830.940494 651.109524C680.812265 651.109524 593.320609 694.729997 512.044514 757.384989L512.044514 757.384989 512.044514 757.384989z"  horiz-adv-x="1024" />

    
    <glyph glyph-name="jiankong" unicode="&#58886;" d="M979.968 824.832h-935.936c-18.944 0-33.792-15.36-33.792-33.792V178.688c0-18.944 15.36-33.792 33.792-33.792h142.848c10.24 0 19.968 4.608 26.624 12.8l190.464 236.032 87.04-71.68c13.824-11.264 34.304-10.24 46.592 3.072l168.96 182.272c16.384-10.24 35.84-15.872 56.32-15.872 59.904 0 109.056 48.64 109.056 109.056 0 59.904-48.64 109.056-109.056 109.056-59.904 0-109.056-48.64-109.056-109.056 0-14.336 3.072-28.16 8.192-40.96L508.928 393.728l-88.576 73.216c-7.168 5.632-15.872 8.704-25.088 7.68-9.216-1.024-17.408-5.632-23.04-12.288l-201.728-249.856h-92.672V756.736h867.84v-544.256h-468.992c-18.944 0-33.792-15.36-33.792-33.792v-166.912h-199.68c-18.944 0-33.792-15.36-33.792-33.792 0-18.944 15.36-33.792 33.792-33.792h457.728c18.944 0 33.792 15.36 33.792 33.792 0 18.944-15.36 33.792-33.792 33.792h-189.44v132.608h468.992c18.944 0 33.792 15.36 33.792 33.792V790.528c0 18.944-15.36 34.304-34.304 34.304z m-217.6-184.32c22.528 0 40.96-18.432 40.96-40.96s-18.432-40.96-40.96-40.96-40.96 18.432-40.96 40.96 18.432 40.96 40.96 40.96z"  horiz-adv-x="1024" />

    
    <glyph glyph-name="ic_layers_px" unicode="&#59149;" d="M511.786667 104.96L197.12 349.653333 128 295.893333l384-298.666666 384 298.666666-69.546667 53.973334-314.666666-244.906667zM512 213.333333l314.24 244.266667L896 512 512 810.666667 128 512l69.546667-53.973333L512 213.333333z"  horiz-adv-x="1024" />

    
    <glyph glyph-name="rise-copy" unicode="&#58928;" d="M35.478 342.199h806.253l-205.882-198.198c-5.27-5.271-5.27-13.818 0-19.088l41.355-41.355c5.271-5.27 13.818-5.27 19.088 0l259.175 249.509c0.299 0.252 0.595 0.511 0.875 0.792l1.384 1.384 39.971 38.479c2.821 2.822 4.115 6.584 3.916 10.279 0.206 3.702-1.089 7.474-3.915 10.301l-41.355 39.862c-0.267 0.265-0.544 0.509-0.827 0.747l-259.224 249.549c-5.271 5.272-13.817 5.272-19.088 0l-41.355-41.355c-5.27-5.27-5.27-13.815 0-19.088l203.951-196.341h-804.321c-7.454 0-13.497-6.042-13.497-13.497v-58.488c0-7.453 6.041-13.497 13.497-13.497z"  horiz-adv-x="1024" />

    
    <glyph glyph-name="sousuo" unicode="&#58883;" d="M716.216252 681.563997a355.427676 355.427676 0 1 1 104.001461-251.426215A355.427676 355.427676 0 0 1 716.216252 681.563997zM136.166862 102.050697a464.790038 464.790038 0 1 0 328.623176-136.166862 463.717858 463.717858 0 0 0-328.623176 136.166862z m868.465814-211.219463a63.258621 63.258621 0 0 0-90.063121 0l-89.527032 90.063121a63.258621 63.258621 0 0 0 89.527032 89.527032l90.063121-89.527032a63.258621 63.258621 0 0 0 0-90.063121z"  horiz-adv-x="1024" />

    
    <glyph glyph-name="renshu" unicode="&#58995;" d="M912 43.6c0-110.24-204.080-134.72-400-134.72s-400 24.48-400 134.72v28.56c0 81.6 138.8 163.2 265.28 208.16 8.16 4.080 49.040 24.48 24.48 89.84-61.2 61.2-110.16 163.2-110.16 261.2 0 151.040 102 232.64 220.4 232.64s220.4-69.36 220.4-224.48c0-98-48.96-212.24-106.080-253.040-24.56-81.6 8.16-98 16.32-98 130.56-44.88 269.36-134.72 269.36-216.32v-28.56z"  horiz-adv-x="1024" />

    
    <glyph glyph-name="dianhua1" unicode="&#58907;" d="M744.427-63.265h-0.019l-4.619 0.104c-107.473 5.497-252.61 106.652-388.285 270.596l-50.116 60.531C165.713 431.922 94.631 592.051 111.254 696.32 122.986 769.881 232.352 831.96 294.844 831.96c30.78 0 41.931-15.317 45.83-24.464 35.376-62.868 79.148-172.199 79.35-211.412l0.012-2.79-1-2.606c-7.802-20.612-25.26-30.487-40.661-39.197-20.29-11.466-31.821-18.995-33.23-40.67-0.418-6.578 5.256-36.502 94.766-146.842l38.269-46.21c89.758-105.928 117.998-117.33 124.61-118.273 21.645-3.01 31.837 6.48 47.404 23.544 11.851 12.994 25.296 27.74 47.479 30.989l2.809 0.4 2.762-0.586c39.088-8.243 139.142-72.725 195.942-120.597 8.201-5.443 22.513-21.602 11.18-57.299-17.778-56.063-95.281-139.212-165.94-139.212z"  horiz-adv-x="1024" />

    
    <glyph glyph-name="wenhao" unicode="&#58975;" d="M618.948354 895.999048c-185.969077 0-337.264227-151.297054-337.264227-337.264227h125.36145c0 116.841097 95.058825 211.902778 211.902777 211.902778S830.851132 675.575442 830.851132 558.734345c0-57.250505-19.630648-88.548749-86.064935-133.267392-70.607132-35.490602-179.425686-137.583489-179.425686-267.234859h125.361449c0 66.098765 64.139888 132.499737 110.85453 155.468471l0.429754-0.663905C876.614415 361.326589 956.212581 424.123914 956.212581 558.734345c0 185.967649-151.295626 337.264703-337.264227 337.264703zM618.948354-24.321798m-103.364063 0a103.364063 103.364063 0 1 1 206.728126 0 103.364063 103.364063 0 1 1-206.728126 0Z"  horiz-adv-x="1723" />

    
    <glyph glyph-name="lichengbei" unicode="&#58916;" d="M147.75913 717.212541C124.237779 710.456408 103.719152 682.806308 109.974831 657.533366l189.922405-752.05769c6.380792-25.147828 36.783391-38.409867 60.179629-31.778848 23.521352 6.631019 44.165091 34.531346 37.784299 59.554061L207.938759 685.433693c-6.255679 25.147828-36.658277 38.409867-60.179629 31.778848m521.723602 81.198709c-138.250499-39.285662-153.514355 21.269308-291.764853-18.016355-79.697346-22.645557-131.369252-80.072687-131.369253-80.072687L360.327092 246.28505s52.17236 57.42713 131.99482 80.072687c138.250499 39.285662 153.514355-21.269308 291.764853 18.016355 86.453479 24.52226 161.146283 97.838815 161.146283 97.838814l-114.604033 453.786931c0 0.125114-74.56769-73.066327-161.146283-97.588587m0 0z"  horiz-adv-x="1299" />

    
    <glyph glyph-name="jiankong1" unicode="&#58911;" d="M271.059-128v60.235H752.94V-128H271.06zM933.647 896C983.462 896 1024 855.462 1024 805.647v-602.353c0-49.814-40.538-90.353-90.353-90.353H90.353C40.538 112.941 0 153.48 0 203.294V805.647C0 855.462 40.538 896 90.353 896h843.294z m0-722.824a30.118 30.118 0 0 1 30.118 30.118V414.118H632.47a30.118 30.118 0 0 0-26.926 16.625L512.422 616.99l-148.36-306.357a30.298 30.298 0 0 0-26.383-16.986h-0.723a30.178 30.178 0 0 0-26.443 15.661l-57.284 104.81H60.235v-210.824a30.118 30.118 0 0 1 30.118-30.118h843.294zM90.353 835.765a30.118 30.118 0 0 1-30.118-30.118v-331.294H271.06c11.023 0 21.142-6.024 26.383-15.661l37.888-69.21 149.564 308.826c5.06 10.42 14.758 19.456 27.106 16.986a30.118 30.118 0 0 0 26.925-16.625l112.158-224.316h312.682V805.647a30.118 30.118 0 0 1-30.118 30.118H90.353z"  horiz-adv-x="1024" />

    
    <glyph glyph-name="zhishi" unicode="&#58897;" d="M1029.936588 896H794.274519C687.538763 896 611.263844 857.842069 573.187797 833.235936 535.111751 857.883011 458.836832 896 352.101076 896H116.439007C52.241974 896 0 844.617808 0 781.444324v-733.47567c0-63.173484 52.241974-114.555676 116.439007-114.555676H352.101076a38.485466 38.485466 0 0 1 4.503618 0.245652c163.399464-9.334773 181.8643-40.81916 182.06901-41.146695 6.468834-12.323538 19.406501-20.061573 33.490544-20.061573h2.047099c14.084043 0 27.02171 7.778977 33.531486 20.061573 0.163768 0.327536 18.628603 31.811923 182.028068 41.146695a38.56735 38.56735 0 0 1 4.503618-0.245652h235.662069c64.197033 0 116.439007 51.382192 116.439007 114.555676V781.444324C1146.375595 844.617808 1094.133621 896 1029.936588 896zM497.035704-9.472952c-38.77206 9.007237-88.721283 15.107593-148.537523 18.014474a2024.29459 2024.29459 0 0 1-195.538923-0.81884h-36.479309c-22.559034 0-40.941986 18.055416-40.941986 40.245972V781.444324a40.61445 40.61445 0 0 0 40.941986 40.245972H352.101076c51.791612 0 100.717284-10.644916 145.425932-31.689097 15.066651-7.082963 27.103594-14.206869 35.824237-19.938746l2.0471-578.510256-0.736956-211.997601c-11.299988 4.094199-23.869178 7.778977-37.666627 10.972452z m573.842869 57.441606a40.61445 40.61445 0 0 0-40.901043-40.245972h-36.438367a2037.805446 2037.805446 0 0 1-195.579865 0.81884c-59.775299-2.906881-109.765463-9.007237-148.537524-18.014474a333.718124 333.718124 0 0 1-37.666626-10.972452l-0.777898 212.038543 2.088041 578.469314c8.720643 5.731878 20.757587 12.855783 35.824238 19.938746a339.122466 339.122466 0 0 0 145.425932 31.689097h235.662069c22.559034 0 40.941986-18.055416 40.941985-40.245972v-733.47567zM433.370917 576.488745H183.911399a37.461917 37.461917 0 0 1-37.748511-37.175323c0-20.511935 16.90904-37.134381 37.748511-37.134381h249.459518c20.839471 0 37.748511 16.622446 37.74851 37.134381a37.461917 37.461917 0 0 1-37.74851 37.175323z m0-224.075487H183.911399a37.461917 37.461917 0 0 1-37.748511-37.134381c0-20.552877 16.90904-37.175323 37.748511-37.175323h249.459518c20.839471 0 37.748511 16.622446 37.74851 37.175323a37.461917 37.461917 0 0 1-37.74851 37.134381zM969.915637 576.488745h-249.418576a37.461917 37.461917 0 0 1-37.789452-37.175323c0-20.511935 16.90904-37.134381 37.789452-37.134381h249.418576c20.839471 0 37.748511 16.622446 37.748511 37.134381a37.461917 37.461917 0 0 1-37.748511 37.175323z m0-224.075487h-249.418576a37.461917 37.461917 0 0 1-37.789452-37.134381c0-20.552877 16.90904-37.175323 37.789452-37.175323h249.418576c20.839471 0 37.748511 16.622446 37.748511 37.175323a37.461917 37.461917 0 0 1-37.748511 37.134381z"  horiz-adv-x="1146" />

    
    <glyph glyph-name="Google" unicode="&#59081;" d="M511.774794 485.29406h490.635248c34.183603-245.317624-68.869907-613.29406-490.635248-613.29406A511.74865 511.74865 0 1 0 855.621628 762.784487c-107.07511-100.54001-103.55621-107.07511-145.280315-150.810015a289.052528 289.052528 0 0 1-198.566519 74.902308 301.620029 301.620029 0 0 1-298.603829-301.62003 301.620029 301.620029 0 0 1 298.603829-301.620029c165.388316 0 232.750123 71.383407 275.982327 201.080019h-275.982327z m920.44379-10.054001H1609.671701v-126.680412h-176.950417v-182.480118H1308.051672v182.480118h-183.988218V475.240059H1308.051672V652.693176h126.680412z"  horiz-adv-x="1610" />

    
    <glyph glyph-name="riqi1" unicode="&#59135;" d="M768 896h156c55.228 0 100-44.772 100-100v-824c0-55.228-44.772-100-100-100H100C44.772-128 0-83.228 0-28V796C0 851.228 44.772 896 100 896h156v-64c0-35.346 28.654-64 64-64 35.346 0 64 28.654 64 64V896h256v-64c0-35.346 28.654-64 64-64 35.346 0 64 28.654 64 64V896zM128 576v-576h768V576H128z m128-128h128v-128H256V448z m0-192h128v-128H256V256z m192 192h128v-128H448V448z m0-192h128v-128H448V256z m192 192h128v-128H640V448z m0-192h128v-128H640V256z"  horiz-adv-x="1024" />

    
    <glyph glyph-name="ICON_zhishixitong-qiyewenhua" unicode="&#59439;" d="M799.99136-63.96928099999991a62.078138 62.078138 0 0 1 63.99808 63.99808V768.00576h63.99808a31.99904 31.99904 0 0 1 0 63.99808H96.01248a31.99904 31.99904 0 1 1 0-63.99808h63.99808v-767.976961a63.99808 63.99808 0 0 1 63.99808-63.99808 637.740868 637.740868 0 0 1 0 63.99808V768.00576h575.98272v-703.978881s-2.239933-127.99616 0-127.99616zM528.31951 636.169715a27.839165 27.839165 0 0 0 11.839645-39.9988l-63.99808-101.436957a34.238973 34.238973 0 0 0-44.158675-10.879674 27.839165 27.839165 0 0 0-11.839645 39.9988l63.99808 101.436957a34.238973 34.238973 0 0 0 44.158675 10.879674zM495.360499 636.169715a27.839165 27.839165 0 0 1-11.839645-39.9988l63.99808-101.436957a34.238973 34.238973 0 0 1 44.158676-10.879674 27.839165 27.839165 0 0 1 11.839644 39.9988l-63.99808 101.436957a34.238973 34.238973 0 0 1-44.158675 10.879674zM586.237773 544.0124799999999l94.397168-29.119127a33.918982 33.918982 0 0 0 23.359299-42.878713 31.99904 31.99904 0 0 0-40.958771-22.719319l-94.397168 29.119127a33.918982 33.918982 0 0 0-24.639261 41.918742 31.99904 31.99904 0 0 0 42.238733 23.67929zM437.762227 544.0124799999999l-94.397168-29.119127a33.918982 33.918982 0 0 1-23.359299-42.878713 31.99904 31.99904 0 0 1 40.958771-22.719319l94.397168 29.119127a33.918982 33.918982 0 0 1 24.639261 41.918742 31.99904 31.99904 0 0 1-42.238733 23.67929zM333.765347 505.93362199999996a37.118886 37.118886 0 0 0 47.038589-5.759827l60.478186-69.757907a26.559203 26.559203 0 0 0-6.719799-40.638781 37.118886 37.118886 0 0 0-47.038589 5.759827l-60.478185 69.757907a26.559203 26.559203 0 0 0 6.719798 40.638781zM690.234653 505.93362199999996a37.118886 37.118886 0 0 1-47.038589-5.759827l-60.798176-69.437917a26.559203 26.559203 0 0 1 6.719798-40.638781 37.118886 37.118886 0 0 1 47.038589 5.759827l60.478186 69.757908a26.559203 26.559203 0 0 1-6.399808 40.31879zM416.00288 448.01535999999993a31.99904 31.99904 0 0 0 31.99904-31.99904v-127.996161a31.99904 31.99904 0 0 0-63.99808 0v127.996161a31.99904 31.99904 0 0 0 31.99904 31.99904zM406.083178 318.0992570000001l93.757187 31.99904a31.99904 31.99904 0 0 0 41.918742-19.839405 31.99904 31.99904 0 0 0-20.479385-42.238733l-93.757188-31.99904a31.99904 31.99904 0 0 0-41.918742 19.839405 31.99904 31.99904 0 0 0 20.479386 42.238733zM617.916822 318.0992570000001l-93.757187 31.99904a31.99904 31.99904 0 0 1-41.918742-19.839405A31.99904 31.99904 0 0 1 502.400288 288.02015900000015l93.757187-31.99904a31.99904 31.99904 0 0 1 41.918743 19.839405 31.99904 31.99904 0 0 1-20.159396 42.238733zM607.99712 448.01535999999993a31.99904 31.99904 0 0 0 31.99904-31.99904v-127.996161a31.99904 31.99904 0 0 0-63.99808 0v127.996161a31.99904 31.99904 0 0 0 31.99904 31.99904zM211.849005-2.211133999999902l287.99136 127.99616a31.99904 31.99904 0 0 0 40.638781-18.239452 31.99904 31.99904 0 0 0-17.919463-41.598752l-287.99136-127.996161a31.99904 31.99904 0 0 0-40.638781 18.239453 31.99904 31.99904 0 0 0 17.919463 41.598752zM812.150995-2.211133999999902l-287.99136 127.99616a31.99904 31.99904 0 0 1-40.638781-18.239452 31.99904 31.99904 0 0 1 17.919463-41.598752l287.99136-127.996161a31.99904 31.99904 0 0 1 40.638781 18.239453 31.99904 31.99904 0 0 1-17.919463 41.598752z"  horiz-adv-x="1024" />

    
    <glyph glyph-name="shubiao" unicode="&#59097;" d="M512.3 11.8c-64.3 0-125 25.2-170.8 71-45.8 45.8-71 106.5-71 170.8V515.4c0 64.3 25.2 125 71 170.8 45.8 45.8 106.5 71 170.8 71 64.3 0 125-25.2 170.8-71s71-106.5 71-170.8v-261.9c0-47-13.6-92.6-39.4-132-6.1-9.2-18.5-11.8-27.7-5.8-9.2 6.1-11.8 18.5-5.8 27.7 21.5 32.8 32.9 70.9 32.9 110v262c0 111.3-90.5 201.8-201.8 201.8-111.3 0-201.8-90.5-201.8-201.8v-261.9c0-111.3 90.5-201.8 201.8-201.8 34.8 0 69.2 9.1 99.4 26.4 9.6 5.5 21.8 2.1 27.3-7.5s2.1-21.8-7.5-27.3c-36.3-20.6-77.5-31.5-119.2-31.5zM512.3 500.9c-13.3 0-24.2 10.9-24.2 24.2v61.1c0 13.3 10.9 24.2 24.2 24.2 13.3 0 24.2-10.9 24.2-24.2v-61.1c-0.1-13.3-10.9-24.2-24.2-24.2z"  horiz-adv-x="1024" />

    
    <glyph glyph-name="zixun1" unicode="&#58891;" d="M599.296 779.09504h-174.592c-181.376 0-328.91904-147.56352-328.91904-328.89856s147.54304-328.87296 328.93952-328.85248h93.16352v-127.27296a25.66144 25.66144 0 0 1 25.66144-25.64096 25.48736 25.48736 0 0 1 17.024 6.46656c6.93248 6.12352 13.80352 12.22656 20.67456 18.34496l97.92 86.99904c37.09952 32.91648 75.84256 64.74752 111.46752 99.2 6.21056 5.99552 12.50304 11.88352 18.79552 17.81248 21.16096 19.98848 41.28256 40.74496 58.624 64.27648 19.75296 26.92096 34.13504 57.6 44.58496 89.25696 10.58304 31.97952 15.57504 65.72544 15.57504 99.41504 0 181.37088-147.54304 328.89344-328.91904 328.89344z m-258.048-376.46848c-26.28096 0.00512-47.58016 21.31456-47.57504 47.59552s21.31456 47.58016 47.59552 47.57504a47.58528 47.58528 0 0 0 47.57504-47.59552c-0.00512-26.28608-21.31456-47.5904-47.59552-47.57504z m170.752 0.02048c-26.28096 0-47.58528 21.30432-47.58528 47.58528s21.30432 47.58528 47.58528 47.58528 47.58528-21.30432 47.58528-47.58528-21.30432-47.58528-47.58528-47.58528z m170.71104 0a47.59552 47.59552 0 0 0 0 95.17056c26.28096 0 47.616-21.33504 47.616-47.59552a47.616 47.616 0 0 0-47.616-47.57504z"  horiz-adv-x="1024" />

    
    <glyph glyph-name="san" unicode="&#58929;" d="M1024 384c0 32 0 57.6-6.4 89.6-38.4 204.8-313.6 326.4-448 358.4 0 12.8-6.4 57.6-64 57.6s-64-64-64-64C300.8 800 44.8 678.4 12.8 473.6 6.4 448 6.4 416 6.4 384v-83.2h422.4v-262.4s6.4-83.2-44.8-83.2c-57.6 0-19.2 102.4-96 89.6-70.4-12.8-38.4-172.8 102.4-172.8 204.8 0 198.4 166.4 198.4 166.4V307.2H1024V384z m-256 96c-19.2 44.8-19.2 64-76.8 89.6-70.4 38.4-64 121.6 6.4 108.8 70.4-12.8 134.4-70.4 160-160 32-96-70.4-89.6-89.6-38.4z"  horiz-adv-x="1024" />

    
    <glyph glyph-name="wenhua" unicode="&#58905;" d="M914.8 272.6c-14.8 28.5-35.9 54-62.7 75.8C798.5 392 727.6 416 652.5 416c-64.6 0-125.5-17.5-176.1-50.6-20.3-13.3-38.3-28.8-53.5-45.9l-29.3 68.8c80.5 9.1 153.2 51.9 212.7 125.8 52.8 65.6 76.5 132.7 77.5 135.5v0.1c16.2 47.1 25.4 82.6 28.1 108.6 1.3 12.3 5.2 49.6-22.7 67.2-12.6 7.9-33.9 13.1-63.9-7-10.2-6.8-18.3-14.4-20.7-16.7-61.3-55.9-127.1-72.4-135.5-74.4-62.2-8.1-112.2-20.7-148.7-37.6-32.8-15.2-56-34.3-68.8-56.9-18.9-33.3-9.3-62.8-5.5-71.9 0.1-0.2 0.1-0.3 0.2-0.5l3.8-8.8 37.9-89.2 23.4-55 54.7-128.6c-20.9 5.8-42.8 8.9-65.4 8.9-54.1 0-105.2-17.3-143.9-48.8-19.5-15.9-35-34.5-45.8-55.4-11.6-22.2-17.5-46-17.5-70.5s5.9-48.2 17.5-70.5c10.9-20.9 26.3-39.6 45.8-55.4 38.8-31.5 89.9-48.8 143.9-48.8h351.7c75.1 0 146 24 199.6 67.6 26.8 21.7 47.9 47.2 62.7 75.8 15.7 30.1 23.6 62.2 23.6 95.4s-7.8 65.2-23.5 95.4zM243.8 577c-0.5-5.1 0.2-10.4 2.1-15.3-1.9 4.9-2.6 10.1-2.1 15.3z m67.3 23.1c3.4 5.6 12.9 16.8 39.1 28.7 30.4 13.8 73.9 24.4 129 31.5 0.7 0.1 1.5 0.2 2.2 0.4 3.5 0.7 82 16.7 159 82.2-3.6-16-9.9-38.8-20.9-70.9-0.6-1.7-21.2-59.3-66.2-115.3-53.5-66.5-116.6-100.9-187.9-102.3L309.1 587c-0.1 0.2-0.2 0.5-0.3 0.7-0.5 1.3-1.7 5.7 2.3 12.4z m498.1-541.3c-41.5-33.8-97.2-52.3-156.7-52.3H300.8c-38.5 0-74.4 11.9-101 33.6-24.6 20-38.2 46-38.2 73.1s13.6 53.1 38.2 73.1c26.7 21.7 62.6 33.6 101 33.6 32.5 0 63-8.5 88.4-24.7l17.3-11 38.9-91.4c5.5-12.9 18.1-20.7 31.3-20.7 4.4 0 9 0.9 13.3 2.7 17.3 7.3 25.3 27.3 18 44.6l-54.1 127.2c13.6 23.6 34.1 44.9 59.8 61.7 39 25.5 88.3 39.5 138.9 39.5 59.5 0 115.2-18.6 156.7-52.3 39.5-32.1 61.2-74.1 61.2-118.4-0.1-44.2-21.8-86.2-61.3-118.3z"  horiz-adv-x="1024" />

    
    <glyph glyph-name="biji" unicode="&#59452;" d="M832 832h-64v-896h64c32 0 64 32 64 64V768c0 32-32 64-64 64zM256 832c-32 0-64-32-64-64v-768c0-32 32-64 64-64h448V832H256z m32-768c-19.2 0-32 12.8-32 32s12.8 32 32 32 32-12.8 32-32-12.8-32-32-32z m0 192c-19.2 0-32 12.8-32 32s12.8 32 32 32 32-12.8 32-32-12.8-32-32-32z m0 192c-19.2 0-32 12.8-32 32s12.8 32 32 32 32-12.8 32-32-12.8-32-32-32z m0 192c-19.2 0-32 12.8-32 32s12.8 32 32 32 32-12.8 32-32-12.8-32-32-32zM224 640h-64c-19.2 0-32 12.8-32 32s12.8 32 32 32h64c19.2 0 32-12.8 32-32s-12.8-32-32-32zM224 448h-64c-19.2 0-32 12.8-32 32s12.8 32 32 32h64c19.2 0 32-12.8 32-32s-12.8-32-32-32zM224 256h-64c-19.2 0-32 12.8-32 32s12.8 32 32 32h64c19.2 0 32-12.8 32-32s-12.8-32-32-32zM224 64h-64c-19.2 0-32 12.8-32 32s12.8 32 32 32h64c19.2 0 32-12.8 32-32s-12.8-32-32-32z"  horiz-adv-x="1024" />

    
    <glyph glyph-name="kongzhi" unicode="&#58880;" d="M881.008 356.351v-380.215c0-21.452-17.392-38.845-38.844-38.845s-38.845 17.392-38.845 38.845V356.35c0 21.452 17.392 38.845 38.845 38.845s38.844-17.393 38.844-38.845z m-38.844 363.43c21.451 0 38.844 17.393 38.844 38.844v33.24c0 21.452-17.392 38.845-38.844 38.845s-38.845-17.392-38.845-38.845v-33.24c0-21.45 17.393-38.844 38.845-38.844zM297.095 384c0-64.44-51.993-116.87-115.902-116.87S65.29 319.56 65.29 384s51.993 116.87 115.903 116.87S297.095 448.44 297.095 384z m-77.688 0c0 21.603-17.142 39.181-38.214 39.181S142.978 405.603 142.978 384s17.143-39.181 38.215-39.181 38.214 17.578 38.214 39.181z m408.496-191.058c0-64.441-51.993-116.87-115.903-116.87-63.909 0-115.902 52.429-115.902 116.87 0 64.45 51.993 116.879 115.902 116.879 63.91 0 115.903-52.43 115.903-116.88z m-77.69 0c0 21.608-17.141 39.19-38.214 39.19-21.072 0-38.213-17.582-38.213-39.19 0-21.603 17.141-39.182 38.213-39.182 21.074 0 38.214 17.579 38.214 39.182zM958.71 552.664c0-64.44-51.993-116.87-115.902-116.87-63.91 0-115.902 52.43-115.902 116.87s51.993 116.87 115.902 116.87 115.902-52.43 115.902-116.87z m-77.688 0c0 21.603-17.142 39.18-38.214 39.18s-38.214-17.577-38.214-39.18 17.142-39.181 38.214-39.181 38.214 17.577 38.214 39.181zM511.987 37.318c-21.452 0-38.845-17.392-38.845-38.845v-22.338c0-21.452 17.392-38.845 38.845-38.845s38.844 17.392 38.844 38.845v22.338c0 21.452-17.392 38.845-38.844 38.845z m0 320.403c21.451 0 38.844 17.394 38.844 38.845v395.3c0 21.45-17.392 38.844-38.844 38.844s-38.845-17.392-38.845-38.845v-395.3c0.001-21.45 17.393-38.844 38.845-38.844zM181.81 216.22c-21.452 0-38.845-17.393-38.845-38.845v-201.24c0-21.45 17.392-38.844 38.845-38.844s38.845 17.392 38.845 38.845v201.24c-0.002 21.45-17.394 38.844-38.845 38.844z m0 333.618c21.451 0 38.845 17.393 38.845 38.845V791.865c0 21.452-17.393 38.845-38.845 38.845s-38.845-17.392-38.845-38.845v-203.183c0-21.45 17.393-38.845 38.845-38.845z"  horiz-adv-x="1024" />

    
    <glyph glyph-name="sousuo1" unicode="&#58943;" d="M691.116 645.025c-121.528 121.568-318.611 121.568-440.181 0s-121.569-318.652 0-440.181c121.551-121.561 318.626-121.561 440.181-0.013v0.013c121.56 121.542 121.56 318.617 0.013 440.168 0 0.004-0.013 0.004-0.013 0.013zM183.202 137.111c-158.936 158.98-158.936 416.701 0 575.687 158.972 158.937 416.679 158.937 575.687 0 158.945-158.986 158.945-416.705 0-575.687-159.008-158.936-416.71-158.936-575.686 0h-0.001z m760.482-184.835c-21.732-21.701-56.936-21.701-78.65 0l-78.611 78.65c-21.706 21.719-21.706 56.91 0 78.615 21.701 21.7 56.891 21.7 78.611 0l78.65-78.615c21.755-21.754 21.755-56.936 0-78.65z"  horiz-adv-x="1024" />

    
    <glyph glyph-name="weixin" unicode="&#58884;" d="M364.8 806.4C166.4 806.4 0 665.6 0 499.2 0 396.8 57.6 313.6 140.8 256h6.4l-38.4-108.8 134.4 70.4h6.4C288 198.4 326.4 192 364.8 192h25.6c-6.4 25.6-12.8 51.2-12.8 76.8 0 153.6 147.2 281.6 332.8 281.6h12.8c-25.6 140.8-172.8 256-358.4 256z m-128-249.6c-25.6 0-51.2 19.2-51.2 44.8 0 25.6 25.6 51.2 51.2 51.2s51.2-19.2 51.2-51.2c0-25.6-19.2-44.8-51.2-44.8z m256 0c-25.6 0-51.2 19.2-51.2 44.8 0 25.6 25.6 51.2 51.2 51.2s51.2-19.2 51.2-51.2c0-25.6-19.2-44.8-51.2-44.8zM1024 262.4c0 140.8-140.8 256-307.2 256-172.8 0-307.2-115.2-307.2-256s140.8-256 307.2-256c32 0 64 6.4 96 12.8h6.4L928-38.4l-32 96c83.2 51.2 128 121.6 128 204.8z m-416 51.2c-25.6 0-44.8 19.2-44.8 44.8 0 25.6 19.2 44.8 44.8 44.8 25.6 0 44.8-19.2 44.8-44.8 0-25.6-19.2-44.8-44.8-44.8z m217.6 0c-25.6 0-44.8 19.2-44.8 44.8 0 25.6 19.2 44.8 44.8 44.8 25.6 0 44.8-19.2 44.8-44.8-6.4-25.6-25.6-44.8-44.8-44.8z"  horiz-adv-x="1024" />

    
    <glyph glyph-name="Facebook" unicode="&#59010;" d="M589.572 815.69c-27.149 0-52.789-3.018-82.955-15.084-61.839-25.639-92.003-82.955-92.003-174.957v-88.987h-85.969v-147.808h85.969v-426.833h174.957V388.854h119.152l16.59 147.808H589.569v66.363c0 21.115 1.508 36.197 7.54 43.741 7.54 13.573 22.624 19.607 46.755 19.607h79.937V814.181H589.566z"  horiz-adv-x="1024" />

    
    <glyph glyph-name="mokuai" unicode="&#58967;" d="M948.736 576h-246.272v235.52c0 47.104-26.112 84.48-73.216 84.48H97.28C50.176 896 0 858.624 0 811.52v-531.968c0-47.104 50.176-86.016 97.28-86.016h222.72v-233.472c0-47.104 49.664-86.528 96.768-86.528h531.968c47.104 0 73.728 39.424 73.728 86.528v532.48c0 46.592-26.624 83.456-73.728 83.456zM72.704 266.24V823.296H629.76v-248.32H414.72c-45.568 0-93.696-35.84-93.696-81.408V266.24H72.704z m565.76 245.76v-254.464H384V512h254.464zM947.2-51.2H396.8v246.272h234.496c45.056 0 69.632 37.376 69.632 81.92V499.712H947.2V-51.2z"  horiz-adv-x="1024" />

    
    <glyph glyph-name="zhiliang" unicode="&#58901;" d="M983.990857 228.864l-377.563428-236.251429c-52.150857-32.548571-136.704-32.548571-188.854858 0L40.009143 228.864A109.714286 109.714286 0 0 0 25.6 239.908571c-36.790857-32.548571-32.182857-77.824 14.482286-107.081142l377.563428-236.251429c52.150857-32.548571 136.704-32.548571 188.854857 0l377.563429 236.251429c46.665143 29.184 51.2 74.532571 14.409143 107.081142a110.592 110.592 0 0 0-14.482286-11.044571z m0 192L606.427429 184.539429c-52.150857-32.548571-136.704-32.548571-188.854858 0L40.009143 420.864a104.082286 104.082286 0 0 0-14.409143 11.117714c-36.790857-32.621714-32.182857-77.897143 14.409143-107.154285l377.563428-236.251429c52.150857-32.548571 136.704-32.548571 188.854858 0l377.563428 236.251429c46.665143 29.184 51.2 74.532571 14.409143 107.081142a105.033143 105.033143 0 0 0-14.409143-11.044571zM40.009143 516.900571l377.563428-236.324571c52.150857-32.548571 136.704-32.548571 188.854858 0l377.563428 236.324571c52.150857 32.621714 52.150857 85.504 0 118.125715L606.427429 871.350857c-52.150857 32.621714-136.704 32.621714-188.854858 0L40.009143 635.026286c-52.150857-32.621714-52.150857-85.504 0-118.125715z"  horiz-adv-x="1024" />

    
    <glyph glyph-name="zhiwei" unicode="&#58910;" d="M346.80090875 864h344.03602594a53.2398675 53.2398675 0 0 0 45.09416812-81.56347781L641.80301656 632.56629469a53.2398675 53.2398675 0 0 0-45.09416812-24.91625813H440.928995a53.2398675 53.2398675 0 0 0-45.09416812 24.91625813L301.70674062 782.43652219A53.2398675 53.2398675 0 0 0 346.85414844 864z m288.34712438-342.86474813l138.42365625-345.68646187a53.2398675 53.2398675 0 0 0-12.56460938-58.13793563l-206.03828812-198.37174781a53.2398675 53.2398675 0 0 0-72.83213907-0.95831718l-218.2834575 199.330065a53.2398675 53.2398675 0 0 0-13.57616625 59.09625281L388.27476594 521.13525187a53.2398675 53.2398675 0 0 0 49.40659687 33.43463626h148.00683281a53.2398675 53.2398675 0 0 0 49.51307719-33.43463625z"  horiz-adv-x="1024" />

    
    <glyph glyph-name="duihua" unicode="&#59046;" d="M793.352 735.836H230.6c-38.707 0-70.346-31.663-70.346-70.342v-633.126L300.946 173.03H793.35c38.704 0 70.395 31.667 70.395 70.396V665.494c0 38.678-31.69 70.342-70.394 70.342m-386.895-316.6h-70.344v70.343h70.344v-70.343z m140.74 0h-70.346v70.343h70.346v-70.343z m140.69 0h-70.345v70.343h70.345v-70.343z"  horiz-adv-x="1024" />

    
    <glyph glyph-name="dingzhi" unicode="&#58895;" d="M119.98-0.766L383.257 73l27.238 27.281-185.337 185.34-27.525-27.48-77.653-258.907zM256.04 316.508l185.366-185.363 362.267 362.313-185.34 185.341L256.04 316.508zM887.288 687.864l-74.573 74.573c-42.658 42.658-68.106 42.658-110.746 0l-52.73-52.772L834.58 524.347l52.73 52.749c42.64 42.662 42.64 68.106-0.022 110.768zM380.132 757.172c-42.657 42.662-68.13 42.662-110.786 0l-176.3-176.274-30.884 30.886 185.341 185.34c42.66 42.66 111.792 42.66 154.453 0L504.05 695.028l-30.884-30.884-93.033 93.028zM170.263 565.433l61.796 61.795 30.908-30.888-61.797-61.791-3.666 3.666 34.532-34.578 92.656 92.703 30.913-30.907-92.662-92.658 9.436-9.436-30.907-30.889L93.028 580.898l30.907 30.887 46.328-46.352zM602.76 132.96l92.656-92.659 46.352-46.35L887.16 139.378c42.658 42.663 42.658 68.131 0 110.791l-97.51 97.506 30.884 30.891L927.11 271.991c42.657-42.66 42.657-111.79 0-154.454l-154.453-154.45-30.888-30.889-30.884 30.889-152.927 152.921 30.89 30.89 13.913-13.938zM726.328 194.73l-92.661-92.654-30.907 30.884 92.656 92.7 30.912-30.93zM741.768 148.426l30.888-30.91-77.217-77.215-30.884 30.907 77.213 77.218z"  horiz-adv-x="1024" />

    
    <glyph glyph-name="fenxiang" unicode="&#59076;" d="M512 896C229.2 896 0 666.8 0 384s229.2-512 512-512 512 229.2 512 512S794.8 896 512 896z m242.7-691.9c0-47.6-39.2-86.2-87.5-86.2s-87.4 38.6-87.4 86.2c0 0.3 0.1 0.6 0.1 1 0 0.3-0.1 0.6-0.1 0.9 0 0.5 0.1 0.9 0.1 1.4L425.9 319c-16-17.5-39-28.7-64.7-28.7-48.3 0-87.5 38.6-87.5 86.2 0 0.3 0.1 0.6 0.1 0.9 0 0.3-0.1 0.6-0.1 1 0 47.6 39.2 86.2 87.5 86.2 23.9 0 45.6-9.5 61.4-24.9l159.9 104.1c-1.6 6.3-2.7 12.7-2.7 19.5 0 0.2 0.1 0.5 0.1 0.8 0 0.4-0.1 0.7-0.1 1.1 0 47.6 39.2 86.2 87.4 86.2 48.3 0 87.5-38.6 87.5-86.2 0-0.3-0.1-0.6-0.1-1 0-0.3 0.1-0.6 0.1-0.9 0-47.6-39.2-86.2-87.5-86.2-25 0-47.4 10.5-63.3 27.1L445.1 400.8c2-7.2 3.5-14.6 3.5-22.4 0-0.4-0.1-0.7-0.1-1.1 0-0.3 0.1-0.5 0.1-0.8 0-6.4-1-12.5-2.3-18.5l147-106.5c15.4 24.4 42.7 40.7 74 40.7 48.3 0 87.5-38.6 87.5-86.2 0-0.3-0.1-0.6-0.1-0.9-0.1-0.3 0-0.7 0-1z"  horiz-adv-x="1024" />

    
    <glyph glyph-name="jihua" unicode="&#58939;" d="M832 716.8c38.4 0 64-25.6 64-64v-595.2c0-38.4-25.6-64-64-64H192c-38.4 0-64 25.6-64 64V652.8c0 38.4 25.6 64 64 64h640m0 64H192c-70.4 0-128-57.6-128-128v-595.2c0-70.4 57.6-128 128-128h640c70.4 0 128 57.6 128 128V652.8c0 70.4-57.6 128-128 128zM332.8 627.2c-12.8 0-32 12.8-32 32V825.6c0 19.2 12.8 32 32 32s32-12.8 32-32v-166.4c0-19.2-12.8-32-32-32zM691.2 627.2c-19.2 0-32 12.8-32 32V825.6c0 19.2 12.8 32 32 32s32-12.8 32-32v-166.4c0-19.2-19.2-32-32-32zM288 492.8m-32 0a32 32 0 1 1 64 0 32 32 0 1 1-64 0ZM768 460.8H467.2c-19.2 0-32 12.8-32 25.6 0 19.2 12.8 32 32 32H768c19.2 0 32-12.8 32-32 0-12.8-12.8-25.6-32-25.6zM288 326.4m-32 0a32 32 0 1 1 64 0 32 32 0 1 1-64 0ZM768 294.4H467.2c-19.2 0-32 12.8-32 32s12.8 32 32 32H768c19.2 0 32-12.8 32-32s-12.8-32-32-32zM288 160m-32 0a32 32 0 1 1 64 0 32 32 0 1 1-64 0ZM768 128H467.2c-19.2 0-32 12.8-32 32s12.8 32 32 32H768c19.2 0 32-12.8 32-32s-12.8-32-32-32z"  horiz-adv-x="1024" />

    
    <glyph glyph-name="yuanjiaojuxing" unicode="&#59115;" d="M896-85.333333H128a85.333333 85.333333 0 0 0-85.333333 85.333333V768a85.333333 85.333333 0 0 0 85.333333 85.333333h512v-199.125333L682.666667 682.666667l42.666666-28.458667V853.333333h170.666667a85.333333 85.333333 0 0 0 85.333333-85.333333v-768a85.333333 85.333333 0 0 0-85.333333-85.333333zM213.333333 768H128v-768h85.333333V768z m682.666667 0h-85.333333v-256l-128 85.333333-128-85.333333V768H298.666667v-768h597.333333V768z m-384-426.666667h256a42.666667 42.666667 0 0 0 0-85.333333h-256a42.666667 42.666667 0 0 0 0 85.333333z m0-170.666666h256a42.666667 42.666667 0 1 0 0-85.333334h-256a42.666667 42.666667 0 1 0 0 85.333334z m42.666667 341.333333z"  horiz-adv-x="1024" />

    
    <glyph glyph-name="jiance" unicode="&#58937;" d="M906.888533 389.848178A402.079289 402.079289 0 0 1 587.867022 860.603733a406.1184 406.1184 0 0 1-76.231111 7.281778c-192.284444 0-358.1952-137.250133-394.535822-326.326044a402.136178 402.136178 0 0 1 319.032889-470.755556 406.380089 406.380089 0 0 1 76.344889-7.304533A402.238578 402.238578 0 0 1 688.093867 104.106667a58.709333 58.709333 0 0 1 5.040355-9.102223L807.822222-74.308267a58.140444 58.140444 0 1 1 96.256 65.206045L789.447111 160.096711a58.356622 58.356622 0 0 1-6.712889 8.260267c64.750933 58.800356 107.599644 135.156622 124.154311 221.4912z m-153.998222 104.595911l-44.521244 34.645333c-6.030222 6.075733-14.791111 10.001067-24.667023 11.025067a39.822222 39.822222 0 0 1-5.586488 0.250311h-0.113778a44.680533 44.680533 0 0 1-24.098134-6.724267c-7.247644-4.642133-12.014933-11.377778-13.243733-18.750577l-39.424-92.808534-63.829333 198.166756c-4.334933 12.8-19.342222 21.754311-36.511289 21.754311h-1.297067c-15.325867 0-28.967822-6.974578-34.793244-17.772089l-0.2048-0.364089-83.990756-197.040355-76.231111 58.902755a43.326578 43.326578 0 0 1-26.464711 8.465067H227.555556q1.297067 12.708978 3.709155 25.440711C257.137778 654.0288 375.034311 751.581867 511.670044 751.581867a288.381156 288.381156 0 0 0 54.249245-5.188267A286.287644 286.287644 0 0 0 796.558222 494.444089zM261.916444 435.495822L369.777778 352.142222c7.133867-5.415822 16.634311-8.408178 26.7264-8.408178h1.137778c15.177956 0 28.751644 6.9632 34.6112 17.760712l0.2048 0.375466 62.884977 147.501511 64.1024-199.418311c4.266667-12.8 19.217067-21.754311 36.408889-21.754311h0.659911c18.204444 0 33.450667 9.887289 36.829867 23.6544l61.44 144.497778 14.939022-11.639467a37.740089 37.740089 0 0 1 10.6496-5.757155 47.092622 47.092622 0 0 1 17.442134-3.2768h58.504533q-1.297067-12.026311-3.572622-23.893334C766.862222 277.356089 648.965689 179.8144 512.375467 179.8144a287.857778 287.857778 0 0 0-54.283378 5.188267A286.321778 286.321778 0 0 0 227.555556 435.495822z m0 0"  horiz-adv-x="1024" />

    
    <glyph glyph-name="shouhou" unicode="&#58902;" d="M818.93181-24.892952v71.972571c0 46.372571-35.157333 84.309333-105.496381 113.90781-70.339048 29.574095-137.508571 44.348952-201.435429 44.348952-63.975619 0-131.096381-14.774857-201.435429-44.373333-70.363429-29.574095-105.545143-67.510857-105.545142-113.932191v-71.923809h613.912381z m-306.907429 613.912381c-41.593905 0-77.531429-15.164952-107.934476-45.543619-30.378667-30.403048-45.543619-66.364952-45.543619-107.934477 0-41.569524 15.164952-77.531429 45.543619-107.910095 30.403048-30.403048 66.364952-45.568 107.934476-45.568 41.569524 0 77.531429 15.189333 107.910095 45.568 30.403048 30.403048 45.568 66.340571 45.568 107.910095 0 41.593905-15.189333 77.531429-45.568 107.934477-30.403048 30.378667-66.340571 45.543619-107.910095 45.543619z m0 203.849142c-14.409143 0-26.404571-4.803048-35.961905-14.409142-9.606095-9.557333-14.409143-21.577143-14.409143-35.937524 0-14.409143 4.803048-26.794667 14.409143-37.180953 9.606095-10.410667 21.577143-15.579429 35.961905-15.579428 14.409143 0 26.38019 5.193143 35.961905 15.579428a52.906667 52.906667 0 0 1 14.409143 37.180953c0 14.409143-4.803048 26.38019-14.409143 35.961905-9.606095 9.606095-21.601524 14.409143-35.961905 14.409142v-0.024381z m357.327238 0c27.209143 0 51.175619-10.361905 71.948191-31.158857 20.796952-20.796952 31.207619-44.763429 31.207619-71.923809V-24.868571c0-27.160381-10.410667-51.126857-31.207619-71.92381-20.821333-20.845714-44.78781-31.207619-71.948191-31.207619H154.648381c-27.160381 0-51.126857 10.410667-71.92381 31.158857-20.796952 20.796952-31.158857 44.81219-31.158857 71.92381V689.761524c0 27.209143 10.410667 51.175619 31.158857 71.923809 20.796952 20.796952 44.81219 31.207619 71.92381 31.207619h213.430857A160.329143 160.329143 0 0 0 423.253333 867.230476C448.853333 886.393905 478.427429 896 512 896c33.572571 0 63.146667-9.606095 88.722286-28.793905a159.792762 159.792762 0 0 0 55.149714-74.313143h213.430857l0.048762-0.024381z m0 0"  horiz-adv-x="1024" />

    
    <glyph glyph-name="huaban" unicode="&#58945;" d="M917.481472 667.211776c-29.353984-11.405312-64.52224-22.810624-93.855744-28.514304 35.190784 22.798336 58.66496 56.9856 76.238848 96.84992-35.145728-17.065984-70.35904-34.16064-105.549824-39.86432-29.310976 34.189312-76.21632 56.9856-123.121664 56.9856-93.857792 0-170.074112-79.767552-170.074112-170.913792 0-11.419648 0-28.499968 5.85728-39.890944-140.71808 5.689344-263.862272 74.051584-345.980928 182.304768-11.71456-22.781952-23.40864-56.956928-23.40864-85.471232 0-56.9344 23.40864-113.928192 70.35904-142.413824-29.356032 0-82.096128 11.393024-82.096128 22.784 0-85.44256 64.512-153.821184 140.6976-170.913792-11.739136-5.70368-29.310976-5.70368-41.003008-5.70368-11.761664 0-17.596416 0-29.356032 5.70368 23.453696-68.364288 82.1248-119.67488 158.334976-119.67488-58.66496-45.53728-128.978944-74.022912-211.099648-74.022912H102.373376c76.21632-51.28192 164.171776-79.73888 258.02752-79.73888 310.792192 0 480.8192 262.057984 480.8192 489.916416v22.810624c23.498752 11.37664 52.764672 45.580288 76.261376 79.767552z m0 0"  horiz-adv-x="1024" />

    
    <glyph glyph-name="youxiang" unicode="&#58915;" d="M953.344 705.621333l-409.6-326.570666c-17.493333-13.994667-46.08-13.909333-63.488 0l-409.6 326.570666A82.261333 82.261333 0 0 0 124.330667 725.333333h775.338666c20.565333 0 39.338667-7.424 53.674667-19.712zM981.333333 623.488v-500.693333C981.333333 78.506667 944.810667 42.666667 899.669333 42.666667H124.330667C79.232 42.666667 42.666667 78.506667 42.666667 122.794667V623.488l405.802666-323.541333c35.072-27.946667 92.074667-27.904 127.061334 0L981.333333 623.488z"  horiz-adv-x="1024" />

    
    <glyph glyph-name="jiare" unicode="&#58887;" d="M896.3 137.4H793.8c-7.3 0-17.1-2.5-21.9-9.8l-73.2-73.2-82.9 165.9c-9.8 21.9-43.9 21.9-56.1 0L483.9 69l-75.6 151.3c-4.9 9.8-14.6 17.1-24.4 17.1-12.2 0-21.9-4.9-26.8-14.6l-92.7-139.1H127.7C110.6 83.7 96 69 96 52c0-17.1 14.6-31.7 31.7-31.7h153.7c9.7 0 19.5 4.9 24.4 14.6L379 144.7l78.1-158.6c9.8-21.9 43.9-21.9 56.1 0l75.6 151.3 75.6-151.3c4.9-9.8 12.2-14.6 21.9-17.1h4.9c7.3 0 17.1 2.4 21.9 9.8l92.7 92.7h90.3c17.1 0 31.7 14.6 31.7 31.7 0.2 19.5-14.4 34.2-31.5 34.2zM273.5 470c0-50-21.9-100-21.9-100-7.3-16.7-2.4-38.9 14.6-47.3 4.9-2.8 9.8-2.8 14.6-2.8 12.2 0 21.9 8.3 26.8 19.5 0 2.8 29.3 66.7 29.3 133.4 0 36.1-14.6 72.3-29.3 102.8-12.2 25-24.4 50-24.4 69.5 0 50 21.9 100.1 21.9 100.1 9.8 19.5 2.5 38.9-12.2 47.2-14.6 8.4-34.2 2.8-41.5-13.9 0-2.8-29.3-66.7-29.3-133.4 0-36.1 14.6-72.3 29.3-102.8 12.4-27.8 22.1-50 22.1-72.3zM478.4 470c0-50-21.9-100-21.9-100-7.3-16.7-2.4-38.9 14.6-47.3 4.9-2.8 9.8-2.8 14.6-2.8 12.2 0 21.9 8.3 26.8 19.5 0 2.8 29.3 66.7 29.3 133.4 0 36.1-14.6 72.3-29.3 102.8-12.2 25-22 50-22 72.3 0 50 22 100.1 22 100.1 7.3 16.7 2.4 38.9-14.6 47.2-14.6 8.4-34.2 2.8-41.5-16.6 0-2.8-29.3-66.7-29.3-133.4 0-36.1 14.6-72.3 29.3-102.8 12.3-27.9 22-50.1 22-72.4zM683.4 470c0-50-21.9-100-21.9-100-7.3-16.7-2.4-38.9 14.6-47.3 4.9-2.8 9.8-2.8 14.6-2.8 12.2 0 21.9 8.3 26.8 19.5 0 2.8 29.3 66.7 29.3 133.4 0 36.1-14.6 72.3-29.3 102.8-12.2 25-22 50-22 72.3 0 50 22 100.1 22 100.1 7.3 16.7 2.4 38.9-14.6 47.2-14.6 8.4-34.2 2.8-41.5-16.6 0-2.8-29.3-66.7-29.3-133.4 0-36.1 14.6-72.3 29.3-102.8 12.3-27.9 22-50.1 22-72.4z"  horiz-adv-x="1024" />

    
    <glyph glyph-name="fangan" unicode="&#58900;" d="M669.355598 252.059152l35.87103 31.247515a314.647273 314.647273 0 0 1 107.52 238.064485C812.746628 694.24097 675.685779 833.939394 507.222264 833.939394 338.727719 833.939394 201.697901 694.24097 201.697901 521.371152a314.647273 314.647273 0 0 1 107.52-238.064485l35.87103-31.247515-20.852364-42.759758c0-0.217212 121.856-0.403394 365.599031-0.496485 0.279273 0.310303-6.578424 14.739394-20.48 43.256243z m82.944-42.883879c0-34.474667-27.958303-62.43297-62.464-62.43297H324.608931a62.43297 62.43297 0 0 0-56.164849 89.770667A376.769939 376.769939 0 0 0 139.637295 521.371152C139.637295 728.281212 304.222022 896 507.222264 896c203.031273 0 367.58497-167.718788 367.58497-374.628848 0-114.036364-49.958788-216.157091-128.806788-284.858182 4.033939-8.254061 6.299152-17.532121 6.299152-27.337697zM286.65887 96.783515m49.958788 0l341.178182 0q49.958788 0 49.958788-49.958788l0 0q0-49.958788-49.958788-49.958788l-341.178182 0q-49.958788 0-49.958788 49.958788l0 0q0 49.958788 49.958788 49.958788ZM384.683598-53.061818m37.453575 0l170.139152 0q37.453576 0 37.453576-37.453576l0-0.03103q0-37.453576-37.453576-37.453576l-170.139152 0q-37.453576 0-37.453575 37.453576l0 0.03103q0 37.453576 37.453575 37.453576ZM799.155355 564.658424l-58.740363-19.983515C706.033416 645.585455 625.57184 726.078061 523.295961 761.638788l20.386909 58.616242c120.211394-41.828848 214.915879-136.502303 255.472485-255.627636z"  horiz-adv-x="1024" />

    
    <glyph glyph-name="fangan1" unicode="&#59127;" d="M804.1-128H144.3c-60.6 0-110 49.3-110 110V715c0 60.6 49.3 110 110 110h513.1c20.3 0 36.7-16.4 36.7-36.7s-16.4-36.7-36.7-36.7H144.3c-20.2 0-36.7-16.5-36.7-36.6v-733c0-20.2 16.5-36.7 36.7-36.7H804c20.2 0 36.6 16.4 36.6 36.7V568.4c0 20.2 16.4 36.7 36.7 36.7 20.3 0 36.6-16.4 36.6-36.7V-18c0.1-60.7-49.2-110-109.8-110zM588.7 458.4c-9.4 0-18.8 3.6-25.9 10.8-14.3 14.3-14.3 37.5 0 51.8L927.1 885.3c14.3 14.3 37.5 14.3 51.8 0 14.3-14.3 14.3-37.5 0-51.8L614.6 469.2c-7.1-7.2-16.5-10.8-25.9-10.8z m-151.2 0H217.6c-20.2 0-36.7 16.4-36.7 36.7 0 20.2 16.4 36.7 36.7 36.7h219.9c20.2 0 36.6-16.4 36.6-36.7 0.1-20.2-16.3-36.7-36.6-36.7z m219.9-219.9H217.6c-20.2 0-36.7 16.4-36.7 36.7 0 20.3 16.4 36.7 36.7 36.7h439.8c20.3 0 36.7-16.4 36.7-36.7 0-20.3-16.4-36.7-36.7-36.7z m0 0"  horiz-adv-x="1024" />

    
    <glyph glyph-name="kefu" unicode="&#58885;" d="M515.2 102.4h16c51.2 6.4 92.8 38.4 108.8 83.2 0 3.2 0 6.4-3.2 9.6-3.2 0-6.4 0-9.6-3.2 0 0-19.2-28.8-99.2-38.4-9.6 0-22.4-3.2-35.2-3.2-54.4 0-80 19.2-80 19.2-3.2 3.2-6.4 3.2-9.6 0-3.2-3.2-3.2-6.4 0-9.6 25.6-35.2 67.2-57.6 112-57.6z m422.4 444.8C889.6 729.6 716.8 864 505.6 864 288 864 108.8 723.2 67.2 534.4 32 528 0 496 0 460.8v-150.4c0-41.6 38.4-76.8 83.2-76.8 28.8 0 48 9.6 64 28.8 38.4-86.4 112-160 204.8-195.2 0 0 3.2 3.2 3.2 6.4s3.2 3.2 3.2 3.2h3.2c-19.2 16-102.4 89.6-118.4 195.2-6.4 48 32 92.8 73.6 99.2 70.4 12.8 144 25.6 214.4 38.4 44.8 6.4 80 28.8 96 67.2 3.2 9.6 9.6 25.6 12.8 51.2 0 3.2 3.2 6.4 9.6 6.4 3.2 0 6.4 0 6.4-3.2h3.2c28.8-38.4 86.4-121.6 92.8-208 9.6-99.2 3.2-166.4-80-236.8v-6.4c0-3.2 0-3.2 3.2-6.4h3.2s3.2 0 3.2 3.2C768 118.4 832 188.8 864 275.2c12.8-16 32-28.8 54.4-32C883.2 96 736 3.2 560-9.6c-9.6 25.6-38.4 41.6-67.2 41.6-41.6 0-70.4-28.8-70.4-64s35.2-64 70.4-64 60.8 19.2 67.2 44.8c208 16 371.2 128 406.4 300.8 38.4 9.6 57.6 35.2 57.6 67.2V467.2c0 48-38.4 80-86.4 80zM864 505.6c-54.4 131.2-195.2 227.2-358.4 227.2s-304-92.8-358.4-227.2l-9.6 9.6c32 160 185.6 281.6 364.8 281.6 185.6 0 336-121.6 364.8-281.6 0-3.2-3.2-6.4-3.2-9.6zM352 60.8z"  horiz-adv-x="1024" />

    
    <glyph glyph-name="qiyewenhua" unicode="&#58906;" d="M1083.960284 709.628369a21.953664 21.953664 0 0 1-18.549409 15.266194l-134.43026 14.176832 13.798581 130.118203A21.893144 21.893144 0 0 1 933.522459 890.628842 22.014184 22.014184 0 0 1 909.178251 888.434988l-251.460993-205.314421a22.226005 22.226005 0 0 1-7.988653-17.792907l4.781088-132.705438-137.562175-111.251064a53.484634 53.484634 0 1 1 34.799054-46.252482l142.222222 114.98818 113.475178-16.643026a10.091726 10.091726 0 0 1 3.268085-0.363121c5.098818 0 10.182506 1.513002 13.450591 5.083688l252.868085 208.204255a22.528605 22.528605 0 0 1 6.929551 23.239717z m-279.451537-192.1513L699.763593 532.879433c-0.453901 0.559811-0.922931 1.089362-1.422222 1.603782l-3.933806 121.78156 202.379196 164.917258-10.591016-99.570685a21.045863 21.045863 0 0 1 4.720567-15.992435 22.543735 22.543735 0 0 1 14.615603-7.973523l104.291253-10.878487z m0 0M486.778251 67.298345a327.398582 327.398582 0 0 0-37.386289 5.295508 318.350827 318.350827 0 0 0 125.760757 624.143736 31.871395 31.871395 0 0 0-12.58818-62.486998c-137.683215 27.733333-272.219385-61.700236-299.952719-199.368321S324.296927 162.738534 461.965012 134.959811s272.219385 61.700236 299.967849 199.353191a31.83357 31.83357 0 1 0 62.411347-12.573049 318.456738 318.456738 0 0 0-337.565957-254.486998z m0 0M512.907801 70.50591c-8.563593 0-17.233097 0.363121-25.72104 1.074232a324.433097 324.433097 0 0 0-36.886997 5.219858 314.114421 314.114421 0 0 0 61.321985 622.010402 318.804728 318.804728 0 0 0 62.683688-6.27896 27.793853 27.793853 0 0 0 17.505438-11.756028 27.551773 27.551773 0 0 0-28.399055-42.243026 259.691726 259.691726 0 0 1-51.26052 5.129078c-122.795272 0-229.537589-87.421277-253.806146-207.856265a259.237825 259.237825 0 0 1 202.742316-305.006147 261.129078 261.129078 0 0 1 51.23026-5.113948c122.780142 0 229.522459 87.391017 253.791017 207.826005a27.562364 27.562364 0 0 0 54.029314-10.939007A314.341371 314.341371 0 0 0 512.907801 70.50591zM512.06052-122.250591c-14.025532 0-28.293144 0.590071-42.364066 1.739953A507.234043 507.234043 0 0 0 61.957447 619.771158 506.734752 506.734752 0 0 0 510.471868 891.748463c14.040662 0 28.323404-0.590071 42.454846-1.755082a504.434988 504.434988 0 0 0 159.83357-39.897873 27.551773 27.551773 0 0 0 14.343262-36.221276 27.551773 27.551773 0 0 0-36.312057-14.328133 450.224113 450.224113 0 0 1-142.494562 35.555556c-12.421749 1.013712-25.040189 1.513002-37.461939 1.513002-233.168794 0-430.827423-182.195745-449.982033-414.789598C40.472813 173.526241 225.860993-45.08747 474.190071-65.618913c12.421749-1.013712 25.009929-1.513002 37.416548-1.513002 233.199054 0 430.887943 182.210875 450.042554 414.819858a453.083688 453.083688 0 0 1-5.9461 119.602837 27.582033 27.582033 0 0 0 22.074705 32.09078 28.232624 28.232624 0 0 0 5.038298 0.453901 27.506383 27.506383 0 0 0 27.113002-22.558865A506.855792 506.855792 0 0 0 512.06052-122.250591z"  horiz-adv-x="1086" />

    
    <glyph glyph-name="IN" unicode="&#58889;" d="M223.36-127.004444H5.489778V599.253333h217.870222V-127.004444z m798.862222 0h-217.884444V260.992c0 101.091556-35.996444 151.424-107.406222 151.424-56.604444 0-92.444444-28.16-110.464-84.593778v-454.769778h-217.884445s2.887111 653.639111 0 726.243556h171.960889l13.283556-145.265778h4.522666c44.672 72.604444 116.067556 121.856 213.959111 121.856 74.467556 0 134.656-20.693333 180.622223-72.718222 46.250667-52.067556 69.290667-121.955556 69.290666-220.060444V-127.004444zM226.958222 780.8c0-60.188444-50.389333-108.942222-112.597333-108.942222S1.777778 720.611556 1.777778 780.8 52.167111 889.742222 114.360889 889.742222c62.151111 0 112.597333-48.753778 112.597333-108.942222z m0 0"  horiz-adv-x="1024" />

    
    <glyph glyph-name="qiache" unicode="&#58932;" d="M365.71648 164.57216c-80.78848 0-146.28352-65.48992-146.28352-146.28352 0-80.78848 65.49504-146.28352 146.28352-146.28352s146.28864 65.49504 146.28864 146.28352c0 80.7936-65.50016 146.28352-146.28864 146.28352zM1389.71648 18.28352c0 80.7936-65.49504 146.28352-146.28352 146.28352s-146.28352-65.48992-146.28352-146.28352c0-80.78848 65.49504-146.28352 146.28352-146.28352s146.28352 65.49504 146.28352 146.28352zM0 859.392v-804.864c0-20.00384 16.42496-36.24448 36.90496-36.24448h109.37856c0 121.20064 98.23744 219.42784 219.42784 219.42784 121.20064 0 219.42784-98.23744 219.42784-219.42784H1024c0 121.20064 98.23232 219.42784 219.42784 219.42784s219.42784-98.23744 219.42784-219.42784h109.97248c20.03968 0 36.31616 16.49664 36.31616 36.75648v318.76096c0 20.25984-1.72032 53.02272-6.94784 72.192l-260.67968 350.72c-13.75232 14.44352-41.58464 26.14784-61.33248 26.14784h-292.9408c-20.07552 0-36.38272-16.05632-36.38272-36.64384V237.7216h-73.14432V859.392c0 20.224-16.384 36.608-36.608 36.608H36.608A36.57728 36.57728 0 0 1 0 859.392z m1056.32768-186.91584c0 20.11648 16.34816 36.64384 36.50048 36.64384h174.336c20.25984 0 45.63968-13.38368 56.98048-29.91616l131.61984-192.18432c11.19232-16.34816 4.13184-29.88032-16.05632-29.88032H1092.864c-20.08064 0-36.53632 16.41984-36.53632 36.64384V672.47616z"  horiz-adv-x="1609" />

    
    <glyph glyph-name="tianchongxing-" unicode="&#58950;" d="M70.6 628.9c11.3 19.6 36.4 26.3 55.9 15l372.8-215.3 369.1 213.1c19.6 11.3 44.6 4.6 55.9-15 0.2-0.3 0.3-0.5 0.4-0.8-3.5 7-8.9 13-16.2 17.2L521.7 866.5c-7.5 6.1-16.9 9.3-26.4 9.2-9.5 0.1-18.9-3.1-26.4-9.2l-383-221.1c-10.1-5.8-16.8-15.4-19.3-25.9 0.9 3.1 2.2 6.3 4 9.4zM925.5 624.5c9.6-19.2 2.7-42.9-16.2-53.8L543.4 359.5v-429c0-22.6-18.3-41-41-41-22.6 0-41 18.3-41 41V355.9l-375.9 217c-11.9 6.9-19.1 18.8-20.3 31.6v-446.1c-1.5-15.5 5.9-31.1 20.3-39.4l387.4-223.7c7.5-6.1 16.9-9.3 26.4-9.2 9.5-0.1 18.9 3.1 26.4 9.2l376 217.1c16.6 5.2 28.7 20.7 28.7 39.1V605.1c0 7.1-1.8 13.7-4.9 19.4z"  horiz-adv-x="1024" />

    
    <glyph glyph-name="sousuo-" unicode="&#58908;" d="M453.485714-10.971429c-113.371429-3.657143-234.057143 40.228571-318.171428 128C51.2 201.142857 0 318.171429 0 438.857143S47.542857 676.571429 135.314286 760.685714C219.428571 844.8 336.457143 896 453.485714 896s234.057143-47.542857 318.171429-135.314286c84.114286-84.114286 135.314286-201.142857 135.314286-321.828571s-47.542857-237.714286-135.314286-321.828572c-87.771429-84.114286-204.8-131.657143-318.171429-128z m0 771.657143c-80.457143 0-164.571429-29.257143-226.742857-91.428571-128-128-128-329.142857 0-460.8s329.142857-128 457.142857 0 128 329.142857 0 460.8c-65.828571 65.828571-149.942857 91.428571-230.4 91.428571zM1024-47.542857L943.542857-128l-234.057143 237.714286 76.8 76.8z"  horiz-adv-x="1024" />

    
    <glyph glyph-name="yanjing" unicode="&#58913;" d="M512 684C285.7 684 98.3 554.2 62 384c36.3-170.2 223.7-300 450-300s413.7 129.8 450 300c-36.3 170.2-223.7 300-450 300z m0-510c-116 0-210 94-210 210s94 210 210 210 210-94 210-210-94-210-210-210zM512 384m-120 0a120 120 0 1 1 240 0 120 120 0 1 1-240 0Z"  horiz-adv-x="1024" />

    
    <glyph glyph-name="Group" unicode="&#59109;" d="M182.857143 636.342857V859.428571c0 21.942857-14.628571 36.571429-36.571429 36.571429s-36.571429-14.628571-36.571428-36.571429v-223.085714c-62.171429-14.628571-109.714286-73.142857-109.714286-142.628571s47.542857-124.342857 109.714286-142.628572V-91.428571c0-21.942857 14.628571-36.571429 36.571428-36.571429s36.571429 14.628571 36.571429 36.571429v442.514285c62.171429 14.628571 109.714286 73.142857 109.714286 142.628572s-47.542857 124.342857-109.714286 142.628571zM585.142857 380.342857V859.428571c0 21.942857-14.628571 36.571429-36.571428 36.571429s-36.571429-14.628571-36.571429-36.571429v-479.085714c-62.171429-14.628571-109.714286-73.142857-109.714286-142.628571s47.542857-124.342857 109.714286-142.628572v-186.514285c0-21.942857 14.628571-36.571429 36.571429-36.571429s36.571429 14.628571 36.571428 36.571429v186.514285c62.171429 14.628571 109.714286 73.142857 109.714286 142.628572s-47.542857 124.342857-109.714286 142.628571zM1133.714286 566.857143c0 69.485714-47.542857 124.342857-109.714286 142.628571V859.428571c0 21.942857-14.628571 36.571429-36.571429 36.571429s-36.571429-14.628571-36.571428-36.571429v-149.942857c-62.171429-14.628571-109.714286-73.142857-109.714286-142.628571s47.542857-124.342857 109.714286-142.628572V-91.428571c0-21.942857 14.628571-36.571429 36.571428-36.571429s36.571429 14.628571 36.571429 36.571429v515.657142c62.171429 18.285714 109.714286 73.142857 109.714286 142.628572z"  horiz-adv-x="1133" />

    
    <glyph glyph-name="daohang" unicode="&#58881;" d="M94.208 470.016c-60.416-28.672-56.32-57.344 8.192-69.632l270.336-45.056c44.032-8.192 89.088-49.152 96.256-94.208l56.32-286.72c12.288-65.536 44.032-69.632 72.704-8.192L962.56 768c27.648 65.536 0 94.208-60.416 65.536L94.208 470.016z"  horiz-adv-x="1024" />

    
    <glyph glyph-name="zixun2" unicode="&#58899;" d="M472.8 241.9h387.9v592c0 30.2-24.5 54.7-54.7 54.7H122c-30.2 0-54.7-24.5-54.7-54.7V-60c0-30.2 24.5-54.7 54.7-54.7h350.7V241.9zM178.3 726.1h536.6v-48.6H178.3v48.6z m0-145.9h536.6v-48.6H178.3v48.6z m0-143.7h341.3V384H178.3v52.5zM504.1 209.5v-243.2H584l22.2-88.9 109.5 88.9h159.4V209.5h-371z m83.6-143.2c-15.6 0-28.3 10.7-28.3 24s12.7 24 28.3 24 28.3-10.7 28.3-24c0-13.2-12.7-24-28.3-24z m113.6 0c-15.6 0-28.3 10.7-28.3 24s12.7 24 28.3 24c15.6 0 28.3-10.7 28.3-24 0.1-13.2-12.6-24-28.3-24z m113.3 0c-15.6 0-28.3 10.7-28.3 24s12.7 24 28.3 24 28.3-10.7 28.3-24c0-13.2-12.7-24-28.3-24z"  horiz-adv-x="1024" />

    
    <glyph glyph-name="zixun" unicode="&#59031;" d="M435.795349 77.145302h442.48707c42.138791 0 76.311814 33.351442 76.311814 74.501954v436.509767c0 41.186233-34.173023 74.51386-76.311814 74.513861H134.370233c-42.138791 0-76.311814-33.327628-76.311814-74.513861v-436.509767c0-41.150512 34.173023-74.501953 76.311814-74.501954h151.242418l-29.553116-102.16186c4.084093-18.872558 10.716279-25.123721 27.278884-11.192558m490.174511 402.039069c0-32.684651-27.124093-59.189581-60.654139-59.189581-33.482419 0-60.606512 26.50493-60.606512 59.189581 0 32.696558 27.124093 59.261023 60.606512 59.261024 33.541953 0 60.65414-26.564465 60.654139-59.261024z m-218.314418 0c0-32.684651-27.171721-59.189581-60.65414-59.189581-33.482419 0-60.65414 26.50493-60.654139 59.189581 0 32.696558 27.171721 59.261023 60.654139 59.261024 33.482419 0 60.65414-26.564465 60.65414-59.261024z m-218.326326 0c0-32.684651-27.171721-59.189581-60.713674-59.189581-33.434791 0-60.606512 26.50493-60.606512 59.189581 0 32.696558 27.171721 59.261023 60.606512 59.261024 33.541953 0 60.713674-26.564465 60.713674-59.261024z m0 0"  horiz-adv-x="1024" />

    
    <glyph glyph-name="huiyuan" unicode="&#58890;" d="M49.7 453.1c18.1-13.6 43.7-10 57.4 8.1l186.9 248c13.6 18.1 10 43.7-8.1 57.4-18.1 13.6-43.7 10-57.4-8.1l-186.9-248c-13.5-18.1-9.9-43.8 8.1-57.4zM541.2-31.1c16.8 15.2 18 41.1 2.8 57.8L104.3 511.9c-15.2 16.8-41.1 18-57.8 2.8-16.8-15.2-18-41.1-2.8-57.8l439.8-485.2c15.1-16.7 41-18 57.7-2.8z m434.7 485.3c-18.1-13.6-43.7-10-57.4 8.1l-186.9 248c-13.6 18.1-10 43.7 8.1 57.4 18.1 13.6 43.7 10 57.4-8.1l186.9-248c13.6-18.1 10-43.8-8.1-57.4zM484.4-30c-16.8 15.2-18 41.1-2.8 57.8L921.4 513c15.2 16.8 41.1 18 57.8 2.8 16.8-15.2 18-41.1 2.8-57.8L542.3-27.2c-15.2-16.7-41.1-18-57.9-2.8z m62.8 213.4c16.8 15.2 18 41.1 2.8 57.8L342.7 470c-15.2 16.8-41.1 18-57.8 2.8-16.8-15.2-18-41.1-2.8-57.8l207.4-228.8c15.1-16.7 41-18 57.7-2.8zM492.2 183.4c-16.8 15.2-18 41.1-2.8 57.8L696.7 470c15.2 16.8 41.1 18 57.8 2.8 16.8-15.2 18-41.1 2.8-57.8L550 186.2c-15.2-16.7-41.1-18-57.8-2.8zM805 734.9c0 22.6-18.3 41-41 41H261.6c-22.6 0-41-18.3-41-41 0-22.6 18.3-41 41-41H764c22.7 0 41 18.4 41 41z"  horiz-adv-x="1024" />

    
    <glyph glyph-name="yuyan1" unicode="&#58973;" d="M1023.84002 384.703912c0 282.492688-228.867392 511.328084-511.936008 511.328084-283.068616 0-511.936008-228.867392-511.936008-511.328084 0-260.767404 195.719535-475.780527 448.103987-507.712536 14.430196-3.007624 31.900012-4.7994 52.409449-4.7994 5.407324 0 11.422572 0.63992 16.861892 1.183852 280.028996 2.431696 506.496688 230.691164 506.496688 511.328084z m-73.462817-7.1991a588.822397 588.822397 0 0 1-9.662792 74.678665c0.607924 8.446944 0.607924 16.861892 0.607924 24.700912 6.015248-29.500312 9.662792-60.216473 9.662792-92.148481-0.607924-2.431696-0.607924-5.43932-0.607924-7.231096z m-876.946382 7.1991c0 31.324084 3.007624 61.432321 9.022872 90.356705 18.653668-20.47744 63.832021-19.869516 74.070741 10.238721 19.261592-12.030496 45.786277-13.854268 45.786277-36.731409 0-77.110361 2.3997-158.988126 72.246969-159.59605 1.823772 0 39.163105-13.886264 56.632921-59.640545 6.015248-15.646044 30.108236 0 56.632921 0 13.246344 0 0-22.269216 0-70.455194 0-47.578053 102.995126-121.072866 102.995126-121.072865-0.607924-31.900012 1.215848-56.600925 3.615548-77.04637-22.87714 0.575928-42.746657-2.431696-57.816773-7.83902A437.609299 437.609299 0 0 0 73.430821 384.703912z m546.267717-425.194851c-1.791776 11.422572-12.030496 17.469816-30.108237 12.030497 14.462192 61.432321 21.693288 96.371954 51.801525 122.256717 43.354581 37.979253 5.43932 80.117985-28.31646 75.28659-25.91676-4.191476-9.630796 32.571929-33.115861 34.363704-23.485064 1.791776-53.593301 48.761905-87.349081 64.439945-18.045744 8.446944-35.515561 31.324084-63.256093 32.539933-24.668916 1.183852-60.216473-20.47744-60.216473-4.223472 0 53.625297-5.43932 91.540557-6.623172 107.186601-1.215848 12.062492-8.446944 4.223472 25.27684 3.615548 18.07774-0.607924 9.022872 36.123485 27.132608 37.339333 17.469816 1.823772 59.032621-16.253968 69.879266-9.022872 9.630796 6.623172 72.278965-164.427447 72.278965-28.316461 0 15.646044-8.446944 43.962505 0 59.608549 33.115861 60.216473 63.832021 109.618298 60.824397 116.849394-1.823772 4.223472-33.755781 7.231096-59.640545-1.215848-8.446944-3.007624 2.3997-16.253968-9.630796-19.293588-46.394201-10.846644-87.957005 12.670416-74.102738 34.939632 15.070116 22.269216 68.663417 9.630796 73.462818 55.385077 2.431696 25.91676 5.43932 55.993001 6.655168 78.294213 63.256093-9.630796 56.600925 81.909761-37.339333 91.540558 189.704287-1.791776 350.548181-124.656418 409.548806-294.523185-3.03962 2.3997-6.623172 4.831396-10.23872 4.831396-28.31646 70.455193-97.587802 19.261592-74.070741-42.746656-125.264342-96.371954-93.364329-163.243595-51.801525-201.158855 21.693288-19.869516 42.170729-50.585677 56.024997-72.278966-15.070116-42.778653 53.625297-25.91676 87.317086 46.362205-43.354581-149.325334-163.211599-266.110736-314.392701-304.089989z m0 0"  horiz-adv-x="1024" />

    
    <glyph glyph-name="google" unicode="&#59187;" d="M933.714286 463.542857H520.8v-169.714286h235.885714c-10.171429-54.857143-41.028571-101.257143-87.542857-132.342857-39.314286-26.285714-89.485714-41.828571-148.457143-41.828571-114.171429 0-210.742857 77.142857-245.257143 180.8-8.685714 26.285714-13.714286 54.4-13.714285 83.314286s5.028571 57.028571 13.714285 83.314285c34.628571 103.542857 131.2 180.685714 245.371429 180.685715 64.342857 0 122.057143-22.171429 167.542857-65.6l125.714286 125.828571c-76 70.857143-175.085714 114.285714-293.257143 114.285714-171.314286 0-319.542857-98.285714-391.657143-241.6-29.714286-59.2-46.628571-126.171429-46.628571-197.028571S99.428571 245.942857 129.142857 186.742857C201.257143 43.428571 349.485714-54.857143 520.8-54.857143c118.4 0 217.6 39.314286 290.057143 106.285714 82.857143 76.342857 130.742857 188.8 130.742857 322.4 0 31.085714-2.742857 60.914286-7.885714 89.714286z"  horiz-adv-x="1024" />

    
    <glyph glyph-name="shijian" unicode="&#59051;" d="M512-128A512 512 0 1 0 512 896a512 512 0 0 0 0-1024z m73.142857 548.571429V603.428571a73.142857 73.142857 0 1 1-146.285714 0v-256a73.142857 73.142857 0 0 1 73.142857-73.142857h256a73.142857 73.142857 0 1 1 0 146.285715H585.142857z"  horiz-adv-x="1024" />

    
    <glyph glyph-name="weixin1" unicode="&#58931;" d="M864.064909 587.207573c6.231237 0 12.462475 0 18.001352-0.69236C843.986477 763.066937 662.588235 896 444.494929 896 199.399594 896 0 726.371873 0 517.279243 0 395.423935 67.851251 286.723462 173.782285 217.487492l-44.311021-130.855984L276.943881 167.637593c51.926978-18.001352 108.700473-28.386748 168.243408-28.386748 11.770115 0 22.84787 0.69236 33.925625 1.38472-12.462475 33.233266-19.386072 67.851251-19.386072 104.546315 0 189.014199 180.705882 342.025693 404.338067 342.025693zM598.198783 709.06288c36.002705 0 65.774172-29.079108 65.774172-65.774171 0-36.002705-29.079108-65.774172-65.774172-65.774172-36.002705 0-65.774172 29.079108-65.774172 65.774172 0 36.002705 29.771467 65.774172 65.774172 65.774171zM292.868154 577.514537c-36.002705 0-65.774172 29.079108-65.774172 65.774172 0 36.002705 29.079108 65.774172 65.774172 65.774171s65.774172-29.079108 65.774172-65.774171c0-36.002705-29.771467-65.774172-65.774172-65.774172zM1239.323867 244.48952c0 175.859364-168.243408 318.485463-375.258958 318.485463s-375.258959-142.626099-375.258959-318.485463 168.243408-318.485463 375.258959-318.485463c43.618661 0 85.160243 6.231237 123.932386 18.001352l128.086545-70.62069-37.387424 110.085193c97.622718 58.158215 160.627451 153.703854 160.627451 261.019608z m-492.960108 45.69574c-29.079108 0-52.619337 23.54023-52.619337 52.619338s23.54023 52.619337 52.619337 52.619337 52.619337-23.54023 52.619338-52.619337-23.54023-52.619337-52.619338-52.619338z m245.095335 0c-29.079108 0-52.619337 23.54023-52.619337 52.619338s23.54023 52.619337 52.619337 52.619337 52.619337-23.54023 52.619337-52.619337-23.54023-52.619337-52.619337-52.619338z"  horiz-adv-x="1241" />

    
    <glyph glyph-name="qq" unicode="&#58942;" d="M579.24 151.089c-25.843 0-48.607-0.648-67.321-2.43-18.714 1.782-41.397 2.43-67.16 2.43-74.288 0-140.475-28.193-140.475-48.932 0-19.93 54.926-17.66 129.053-16.932 29.812 0.324 57.276 3.403 79.635 8.264 21.955-4.618 48.689-7.535 77.61-7.859 74.127-0.729 128.972-2.997 128.972 16.851 0.081 20.658-66.025 48.608-140.313 48.608zM764.111 355.646c-13.934 37.508-29.164 74.531-45.529 110.987 0.73 8.83 1.134 17.823 1.134 26.896 0 139.666-71.534 252.922-207.392 252.922-135.94 0-207.392-113.256-207.392-252.922 0-8.506 0.324-16.932 1.053-25.195-10.694-23.737-28.274-64.486-46.177-112.931-28.598-77.53-29.894-147.687-19.93-152.871 7.049-3.727 32.892 23.412 57.52 67.321 16.283-103.453 85.063-180.74 214.926-180.74 129.54 0 198.238 76.963 214.765 179.93 24.465-43.018 49.984-69.509 57.033-65.863 9.964 5.023 8.668 75.017-20.01 152.466zM456.83 663.656c-20.172-0.405-36.05-24.142-35.483-53.064 0.567-28.921 17.337-52.09 37.509-51.686s36.05 24.142 35.483 53.064c-0.567 28.921-17.336 52.09-37.509 51.686z m111.474-0.567c-20.415 0.405-37.428-22.603-37.995-51.362-0.567-28.76 15.473-52.416 35.888-52.82 20.416-0.406 37.428 22.602 37.995 51.361 0.567 28.76-15.554 52.416-35.888 52.82z m76.557-231.94c-39.453-6.886-85.145-10.774-133.914-10.774-47.798 0-92.679 3.807-131.565 10.37-26.896-33.378-29.002-82.39-29.002-137.155 0-100.456 56.79-181.874 161.944-181.874s161.944 81.418 161.944 181.874c0 54.926-2.106 104.182-29.407 137.56zM512.324 541.813c-70.643 0-127.838-14.178-127.838-25.6 0-11.342 74.856-42.613 127.838-42.613 53.063 0 127.838 32 127.838 42.613 0 10.693-57.195 25.6-127.838 25.6zM718.582 466.633c0 0.243 0 0.486 0.081 0.81-51.929-17.175-125.164-27.868-206.258-27.868-81.337 0-154.815 10.774-206.744 28.03-11.018-24.628-21.55-49.499-31.433-74.613 32-10.612 67.888-19.119 106.531-25.033v-95.108s27.383-5.104 53.226-6.157c18.309-0.73 37.752 2.349 37.752 2.349v89.924c13.367-0.567 26.977-0.972 40.75-0.972 89.275 0 171.584 12.88 237.528 34.673-10.045 24.952-20.496 49.58-31.433 73.965zM468.74 627.119c-8.911 0-16.121-9.316-16.121-20.82s7.21-20.82 16.121-20.82c8.912 0 16.122 9.316 16.122 20.82s-7.21 20.82-16.122 20.82z m118.44-13.286s-6.48 7.777-22.764 5.67c-16.04-2.025-22.278-11.341-23.493-12.313 0 0-3.808-5.266-1.135-8.506 2.674-3.241 7.616 1.863 7.616 1.863s7.453 9.154 17.012 9.478c9.64 0.324 15.15-3.807 15.15-3.807s4.698-3.484 7.615 0c2.835 3.483 0 7.615 0 7.615z"  horiz-adv-x="1024" />

    
    <glyph glyph-name="PDF" unicode="&#59165;" d="M857.5488 611.1232h-205.1072V816.2304l205.1072-205.1072z m-230.5536-25.4464V816.2304L165.888 816.2816v-403.456H857.6V585.6256h-230.5536zM51.2-48.2816v403.456h921.6v-403.456H51.2z m88.7808 330.4448v-264.6016h55.6544V110.08h67.4816c23.1424 0 40.3456 1.28 51.5584 3.8912 11.264 2.56 21.1456 6.912 29.7984 13.0048a68.608 68.608 0 0 1 23.04 28.16c5.0688 11.3664 7.5776 24.9856 7.5776 40.8064 0 16.1792-3.072 30.5152-9.2672 42.9056a74.9056 74.9056 0 0 1-27.2896 30.208c-7.168 4.5056-16.896 7.8336-28.9792 9.9328a298.752 298.752 0 0 1-48.7936 3.1744H139.9808z m120.064-47.1552c19.456 0 33.1776-2.9696 41.1648-8.9088 7.936-5.9392 11.9296-15.9744 11.9296-30.1568 0-13.2096-4.096-23.04-12.2368-29.44-8.1408-6.4-20.6336-9.6256-37.376-9.6256H195.584V235.008h64.4096z m153.6 47.1552v-264.6016h122.7264c20.736 0 37.0688 1.792 48.9472 5.3248 11.8784 3.5328 23.04 9.472 33.4848 17.92 13.568 10.752 23.7056 24.832 30.5152 42.1888 6.7584 17.3568 10.1376 38.0416 10.1376 62.208 0 46.7968-10.1376 81.3056-30.4128 103.5776-20.2752 22.272-51.712 33.3824-94.3104 33.3824H413.5936z m120.0128-46.08c24.576 0 41.5744-6.1952 50.944-18.6368 9.3696-12.3904 14.0288-34.9696 14.0288-67.584 0-32.768-4.6592-55.296-14.0288-67.6864-9.3696-12.3392-26.3168-18.5344-50.944-18.5344H469.1968v172.4416h64.4608z m162.2016-96.8192v-121.7024h55.808v108.3392h159.0784v45.7216H751.616c0.4096 22.6816 6.0416 39.1168 17.0496 49.2544 10.9568 10.1376 28.5184 15.2064 52.6336 15.2064h89.4464v46.08h-84.7872c-25.088 0-45.9776-2.4576-62.8224-7.3728-16.7936-4.9152-30.208-12.4928-40.2944-22.6816a83.3024 83.3024 0 0 1-20.8896-38.6048c-4.096-15.7696-6.144-40.5504-6.144-74.24z"  horiz-adv-x="1024" />

    
    <glyph glyph-name="liebiao" unicode="&#58917;" d="M394.809 558.763h466.034c34.952 0 58.254 23.301 58.254 58.254s-23.302 58.254-58.254 58.254H394.809c-34.953 0-58.254-23.302-58.254-58.254s23.301-58.254 58.254-58.254z m466.034-116.509H394.809c-34.953 0-58.254-23.301-58.254-58.254s23.301-58.254 58.254-58.254h466.034c34.952 0 58.254 23.301 58.254 58.254s-23.302 58.254-58.254 58.254z m0-233.017H394.809c-34.953 0-58.254-23.301-58.254-58.254s23.301-58.254 58.254-58.254h466.034c34.952 0 58.254 23.302 58.254 58.254s-23.302 58.254-58.254 58.254zM161.792 675.271c-34.953 0-58.254-23.302-58.254-58.254s23.301-58.254 58.254-58.254 58.254 23.301 58.254 58.254-23.301 58.254-58.254 58.254z m0-233.017c-34.953 0-58.254-23.301-58.254-58.254s23.301-58.254 58.254-58.254 58.254 23.301 58.254 58.254-23.301 58.254-58.254 58.254z m0-233.017c-34.953 0-58.254-23.301-58.254-58.254s23.301-58.254 58.254-58.254 58.254 23.302 58.254 58.254-23.301 58.254-58.254 58.254z m0 0"  horiz-adv-x="1024" />

    
    <glyph glyph-name="jiantou" unicode="&#58893;" d="M806.2 357.6c0.6 1.3 1.7 2.3 2.3 3.6 11.1 23.3 7.5 51.8-12.2 70.6L349.7 857.3c-24.4 23.2-62.7 22.1-85.8-2.4-23-24.5-22-63.2 2.4-86.4L667 386.6 267.9-0.9c-24.1-23.4-24.8-62.1-1.6-86.4 11.9-12.5 27.8-18.7 43.7-18.7 15.2 0 30.3 5.7 42.1 17.1l442.5 429.6c0.9 0.8 1.2 2 2 2.9 0.6 0.6 1.3 1.1 2 1.7 3.4 3.7 5.3 8.2 7.6 12.3z m0 0"  horiz-adv-x="1024" />

    
    <glyph glyph-name="jiantou1" unicode="&#58894;" d="M293.436 422.46c0.36000001 0.359 0.856 0.449 1.214 0.788l359.113 394.661c21.692 21.242 56.657 21.489 78.054 0.518 21.398-20.972 21.173-55.193-0.54-76.459l-325.045-357.221 325.698-357.92c21.69-21.263 21.713-55.689 0.045-76.929-21.691-21.218-56.837-21.196-78.55 0.045l-359.966 395.608c-21.691 21.241-21.713 55.689-0.022 76.908z"  horiz-adv-x="1024" />

    
    <glyph glyph-name="bolangyi" unicode="&#58919;" d="M1001.36 474.16h-116.4c-12.8-0.08-23.2-13.44-23.36-30V203.2c0-16.56-10.4-30-23.2-30-12.8 0-23.2 13.44-23.2 30V805.52C815.12 855.52 783.84 896 745.2 896s-69.92-40.48-69.92-90.48V-37.6c0-16.56-10.4-30-23.2-30-12.8 0-23.2 13.44-23.2 30V715.12c0 49.92-31.28 90.32-69.84 90.32s-69.84-40.48-69.84-90.32v-421.68c0-16.64-10.4-30.08-23.28-30.08s-23.28 13.52-23.28 30.08V805.52C442.64 855.36 411.36 895.76 372.8 895.76s-69.84-40.4-69.84-90.24v-722.8c-0.96-15.76-11.12-27.84-23.28-27.84s-22.32 12.16-23.28 27.84V564.64c0 49.92-31.28 90.48-69.92 90.48s-69.92-40.48-69.92-90.48V474.4H23.2c-12.8 0-23.2-13.68-23.2-30s10.56-30 23.2-30h116.56c12.8 0.08 23.12 13.52 23.2 30V564.8c0 16.56 10.4 30 23.2 30s23.2-13.44 23.2-30v-481.92c2.32-47.68 32.88-84.72 69.84-84.72s67.44 37.12 69.84 84.72V805.76c0 16.56 10.4 30 23.2 30 12.8 0 23.2-13.44 23.2-30v-511.92c0-49.84 31.28-90.24 69.84-90.24s69.84 40.4 69.84 90.24V715.12c0 16.56 10.4 30 23.2 30 12.8 0 23.2-13.44 23.2-30v-752.88c0-49.84 31.28-90.24 69.84-90.24s69.84 40.4 69.84 90.24V805.52c0 16.64 10.4 30.08 23.28 30.08s23.28-13.52 23.28-30.08V203.2c1.68-48.32 32.48-86.4 69.84-86.4 37.44 0 68.24 38.08 69.84 86.4V413.92h93.2c12.8 0 23.36 13.68 23.36 30 0 16.4-10 30.24-22.64 30.24z"  horiz-adv-x="1024" />

    
    <glyph glyph-name="wendang" unicode="&#58903;" d="M992.970007-128H186.182128a185.623273 185.623273 0 0 0-183.668363 161.171394A124.679758 124.679758 0 0 0 0.00031 58.181818V709.818182a124.121212 124.121212 0 0 0 124.121212 124.121212h248.242425a123.841939 123.841939 0 0 0 119.745939-93.090909H992.970007a186.181818 186.181818 0 0 0 186.181818-186.181818v-496.484849a186.181818 186.181818 0 0 0-186.181818-186.181818z m31.030303 558.545455a124.121212 124.121212 0 0 1-124.121212 124.121212H279.273038a124.121212 124.121212 0 0 1-124.121213-124.121212v-62.060607h868.848485v62.060607z m46.545455 372.363636h-465.454546a46.545455 46.545455 0 0 0 0 93.090909h465.454546A46.545455 46.545455 0 0 0 1117.091219 849.454545 46.545455 46.545455 0 0 0 1070.545765 802.909091z"  horiz-adv-x="1179" />

    
    <glyph glyph-name="shengji" unicode="&#59072;" d="M497.664-66.048c-9.216 2.56-13.824 10.24-11.264 19.456l16.384 60.928c2.56 9.216 10.24 13.824 19.456 11.264 9.216-2.56 13.824-10.24 11.264-19.456l-16.384-60.928c-2.56-9.216-10.24-13.824-19.456-11.264M314.88-16.896c-9.216 2.56-13.824 10.24-11.264 19.456l16.384 60.928c2.56 9.216 10.24 13.824 19.456 11.264 9.216-2.56 13.824-10.24 11.264-19.456l-16.384-60.928c-2.56-9.216-10.24-13.824-19.456-11.264M390.144-102.4c-9.216 2.56-13.824 10.24-11.264 19.456l32.768 121.856c2.56 9.216 10.24 13.824 19.456 11.264 9.216-2.56 13.824-10.24 11.264-19.456L409.6-91.136c-3.072-9.216-10.752-13.824-19.456-11.264M782.336 376.32l3.072 12.288c45.056 167.424-4.096 350.208-126.464 477.696-2.048 4.096-8.192 5.632-15.36 4.096-169.984-46.592-302.592-180.224-348.16-350.208l-3.072-12.288C224.256 496.64 171.52 445.44 154.112 381.44c-20.992-79.36 14.848-163.84 90.112-200.192 3.072-1.024 9.216-2.56 12.8-0.512 4.096 2.048 8.704 7.68 9.216 10.752 5.632 21.504 17.408 40.96 31.744 56.832 7.68-30.72 19.456-60.416 35.328-87.552 2.56-4.096 6.144-7.168 10.752-9.216l209.92-56.32c3.072-1.024 9.728 0.512 16.896 2.048 23.04 13.312 57.344 43.52 78.336 60.416 7.168-21.504 6.656-47.616 1.024-68.608-1.536-6.144 0.512-9.728 2.56-13.824 2.048-3.584 8.192-5.632 11.264-6.144 79.872-5.12 156.672 49.152 177.664 128.512 18.432 66.56-5.632 135.168-59.392 178.688z m-243.2 66.56C486.912 457.216 455.68 510.976 469.504 563.712s68.096 83.968 120.832 69.632c52.736-14.336 83.968-68.096 69.632-120.832s-68.096-83.456-120.832-69.632z"  horiz-adv-x="1024" />

    
    <glyph glyph-name="peixun" unicode="&#58904;" d="M957.2 714.8h-28.8c-9.2 0-9.2-3.6-9.2-9.2v-580c0-18.4-14.8-18.4-22.8-18.4-313.2 4.8-388.8-96.8-388.8-96.8S432 112 118.8 107.2c-8 0-22.8 0-22.8 18.4v580c0 5.6-1.2 9.2-9.2 9.2h-25.2c-6.8 0-9.2-2.4-9.2-10.4v-634.4c0-8 3.6-11.6 10.4-11.6 56.4 3.6 314.4 4.8 396.8-86.4H556c106.8 101.6 342 90 398 86.4 6.8 0 10.4 3.6 10.4 11.6V704.4c-0.4 6.8-0.4 10.4-7.2 10.4z m-786-564c28.8 0 158.4 2.4 336-98 177.6 100.4 307.6 98 336 98 28.8 0 30.8 18.4 30.8 18.4V782.8c0 26.4-12.8 20.8-12.8 20.8-264-5.6-354.4-134.8-354.4-134.8S416 799.2 152.4 803.6c0 0-12.8 5.6-12.8-20.8v-613.6c0.8 0 2.8-18.4 31.6-18.4z m315.6 475.2h43.6v-522.4h-43.6V626z"  horiz-adv-x="1024" />

    
    <glyph glyph-name="shubiao1" unicode="&#58948;" d="M512 831.8c-174.2 0-315.5-141.2-315.5-315.4v-262.9C196.5 79.2 337.8-62 512-62s315.4 141.2 315.4 315.4V516.3c0 174.2-141.2 315.5-315.4 315.5z m262.9-578.3c0-145.2-117.7-262.9-262.9-262.9S249.1 108.3 249.1 253.5V516.3c0 145.2 117.7 262.9 262.9 262.9s262.9-117.7 262.9-262.9v-262.8zM512 674.1c-29 0-52.6-23.5-52.6-52.6v-105.1c0-29 23.5-52.6 52.6-52.6s52.6 23.5 52.6 52.6V621.5c0 29-23.6 52.6-52.6 52.6z"  horiz-adv-x="1024" />

    
    <glyph glyph-name="you_tube" unicode="&#58949;" d="M829.44 788.48v-230.4c-5.12-5.12-10.24-10.24-20.48-15.36-5.12-5.12-10.24-5.12-15.36-5.12-5.12 0-10.24 0-10.24 5.12-5.12 5.12-5.12 10.24-5.12 15.36V788.48H716.8V537.6c0-20.48 5.12-30.72 10.24-40.96 5.12-10.24 15.36-15.36 30.72-15.36 10.24 0 25.6 5.12 35.84 10.24 10.24 5.12 25.6 15.36 35.84 30.72V486.4h61.44V788.48h-61.44z m-184.32-15.36c-15.36 15.36-35.84 20.48-61.44 20.48s-51.2-5.12-66.56-20.48c-15.36-10.24-25.6-30.72-25.6-51.2v-153.6c0-25.6 10.24-46.08 25.6-61.44 15.36-15.36 35.84-20.48 61.44-20.48s51.2 5.12 66.56 20.48c15.36 15.36 25.6 35.84 25.6 61.44v153.6c0 20.48-10.24 35.84-25.6 51.2z m-35.84-215.04c0-10.24 0-15.36-5.12-20.48-5.12-5.12-10.24-5.12-20.48-5.12-5.12 0-15.36 0-20.48 5.12-5.12 5.12-5.12 10.24-5.12 20.48V721.92c0 5.12 0 10.24 5.12 15.36 5.12 5.12 10.24 5.12 15.36 5.12 5.12 0 15.36 0 20.48-5.12 5.12-5.12 5.12-10.24 5.12-15.36v-163.84zM419.84 896l-40.96-163.84h-5.12L327.68 896H261.12l81.92-245.76V486.4H409.6V655.36L486.4 896H419.84z m471.04-716.8c5.12-5.12 5.12-15.36 5.12-25.6v-25.6h-46.08v25.6c0 10.24 0 20.48 5.12 25.6 5.12 5.12 10.24 10.24 20.48 10.24 5.12-5.12 10.24-5.12 15.36-10.24z m-184.32 0c-5.12 5.12-10.24 5.12-15.36 5.12h-10.24c-5.12 0-10.24-5.12-10.24-10.24v-168.96c5.12-5.12 10.24-10.24 15.36-10.24 5.12 0 10.24-5.12 10.24-5.12 5.12 0 10.24 0 15.36 5.12 5.12 5.12 5.12 10.24 5.12 20.48v143.36c-5.12 10.24-5.12 15.36-10.24 20.48z m0 0c-5.12 5.12-10.24 5.12-15.36 5.12h-10.24c-5.12 0-10.24-5.12-10.24-10.24v-168.96c5.12-5.12 10.24-10.24 15.36-10.24 5.12 0 10.24-5.12 10.24-5.12 5.12 0 10.24 0 15.36 5.12 5.12 5.12 5.12 10.24 5.12 20.48v143.36c-5.12 10.24-5.12 15.36-10.24 20.48z m302.08 209.92H168.96C76.8 389.12 0 312.32 0 220.16v-174.08C0-51.2 76.8-128 168.96-128h839.68c92.16 0 168.96 76.8 168.96 168.96v174.08c0 97.28-76.8 174.08-168.96 174.08z m-614.4-117.76H332.8v-317.44H271.36v317.44H209.92v56.32h184.32v-56.32z m179.2-317.44h-56.32v30.72c-10.24-10.24-20.48-20.48-30.72-25.6-10.24-5.12-20.48-10.24-30.72-10.24-10.24 0-20.48 5.12-30.72 10.24-5.12 10.24-10.24 20.48-10.24 35.84v230.4h51.2v-209.92c0-5.12 0-10.24 5.12-15.36 0-5.12 5.12-5.12 10.24-5.12s10.24 0 15.36 5.12l15.36 15.36v209.92h56.32v-271.36z m194.56 56.32c0-20.48-5.12-35.84-10.24-46.08-10.24-10.24-20.48-15.36-35.84-15.36-10.24 0-20.48 0-25.6 5.12-10.24 5.12-15.36 10.24-25.6 20.48v-20.48H614.4v368.64h51.2v-117.76c5.12 10.24 15.36 15.36 25.6 20.48 10.24 5.12 15.36 5.12 25.6 5.12 15.36 0 30.72-5.12 40.96-15.36 10.24-10.24 15.36-30.72 15.36-51.2v-153.6z m184.32 71.68h-102.4v-51.2c0-15.36 0-25.6 5.12-30.72 5.12-5.12 10.24-10.24 20.48-10.24s15.36 0 20.48 5.12c5.12 5.12 5.12 15.36 5.12 30.72v10.24h56.32v-15.36c0-30.72-5.12-51.2-20.48-61.44-15.36-15.36-30.72-20.48-61.44-20.48-25.6 0-40.96 5.12-56.32 20.48-15.36 15.36-20.48 35.84-20.48 61.44v122.88c0 25.6 5.12 40.96 25.6 56.32 15.36 15.36 35.84 20.48 56.32 20.48 25.6 0 40.96-5.12 56.32-20.48 15.36-15.36 20.48-30.72 20.48-61.44v-56.32z m-266.24 102.4h-10.24c-5.12 0-10.24-5.12-10.24-10.24v-168.96c5.12-5.12 10.24-10.24 15.36-10.24 5.12 0 10.24-5.12 10.24-5.12 5.12 0 10.24 0 15.36 5.12 5.12 5.12 5.12 10.24 5.12 20.48v143.36c0 10.24 0 15.36-5.12 20.48-5.12 5.12-10.24 5.12-20.48 5.12z m20.48-5.12c-5.12 5.12-10.24 5.12-15.36 5.12h-10.24c-5.12 0-10.24-5.12-10.24-10.24v-168.96c5.12-5.12 10.24-10.24 15.36-10.24 5.12 0 10.24-5.12 10.24-5.12 5.12 0 10.24 0 15.36 5.12 5.12 5.12 5.12 10.24 5.12 20.48v143.36c-5.12 10.24-5.12 15.36-10.24 20.48z m0 0c-5.12 5.12-10.24 5.12-15.36 5.12h-10.24c-5.12 0-10.24-5.12-10.24-10.24v-168.96c5.12-5.12 10.24-10.24 15.36-10.24 5.12 0 10.24-5.12 10.24-5.12 5.12 0 10.24 0 15.36 5.12 5.12 5.12 5.12 10.24 5.12 20.48v143.36c-5.12 10.24-5.12 15.36-10.24 20.48z"  horiz-adv-x="1177" />

    
    <glyph glyph-name="jiantou2" unicode="&#59005;" d="M164.385 534.634c0 15.793 6.255 30.502 17.606 41.418 22.813 21.967 59.274 21.291 81.271-1.512l250.406-259.796L760.348 575.5c21.796 23.016 58.255 24.034 81.29 2.268 11.425-10.837 17.975-26.076 17.975-41.799 0-14.747-5.576-28.771-15.709-39.492L556.077 192.16600000000005c-16.939-17.94-43.603-22.701-66.333-11.842-1.705 0.781-3.015 1.693-3.761 2.231a65.89 65.89 0 0 1-1.399 0.748c-2.742 1.45-6.385 3.373-9.855 6.687l-0.225 0.218c-0.209 0.203-0.397 0.404-0.573 0.59a19.821 19.821 0 0 0-2.609 2.175L180.479 494.732c-10.382 10.795-16.096 24.962-16.096 39.901z"  horiz-adv-x="1024" />

    
    <glyph glyph-name="dingweiweizhi" unicode="&#58892;" d="M513.8 832.1c-203.7 0-368.8-165.9-368.8-371 0-102.5 41.3-195.2 108.1-262.3l260.7-262.3 260.7 262.3c69.2 69.8 108.1 164 108.1 262.3-0.2 205-165.3 371-368.8 371z m0-535.9c-43.7 0-85.5 17.6-116.1 48.5-30.6 30.9-47.9 72.7-47.9 116.4s17 85.5 47.9 116.4c30.6 30.9 72.4 48.2 116.1 48.5 43.7 0 85.5-17.6 116.1-48.5 30.6-30.9 47.9-72.7 47.9-116.4 0.3-43.7-17-85.5-47.9-116.4-30.9-30.9-72.7-48.2-116.1-48.5z m0 0"  horiz-adv-x="1024" />

    
    <glyph glyph-name="zhiliang1" unicode="&#58991;" d="M780.003556 462.260148l-0.644741 177.739852c-102.646519 2.048-201.500444 32.464593-284.463408 100.333037l-49.682963 42.666667-49.170963-43.102815c-83.285333-68.058074-174.990222-100.901926-277.902222-102.437926l-1.005037-174.326519h0.208593c-1.630815-136.571259 72.476444-229.546667 127.829333-283.553185 3.602963-3.527111 45.226667-53.987556 150.755556-145.673481-0.284444 0.170667 0.132741 0.018963 0.13274 0 0-0.037926-0.018963-0.037926-0.151703 0l72.912592-70.352593-3.147852-4.892444-27.022222-35.346963L179.882667 171.387259a41.434074 41.434074 0 0 0-4.209778 5.138963c-64.758519 67.697778-111.748741 175.578074-114.289778 276.745482l0.113778 7.661037 1.099852 189.781333-0.094815 16.687407-0.265482 40.675556 35.365926-10.486518 13.274074-2.503112c101.888-8.685037 216.405333 57.325037 293.451852 126.350223l2.977185 2.332444 8.419556 6.656s29.677037 25.220741 30.416593 25.220741l8.798814-7.604148 24.841482-22.414223s4.892444-4.247704 4.987259-4.190814C561.682963 752.355556 675.498667 688.867556 777.481481 697.457778l10.808889 0.474074 37.679408 5.973333v-59.012741l0.379259-181.778963M384.170667 294.362074l244.982518 244.849778 46.667852-46.667852-244.944593-244.92563-46.705777 46.686815zM324.949333 447.943111l117.646223-117.646222-46.686815-46.686815-117.703111 117.646222 46.667851 46.686815zM776.798815 238.686815c0.132741-7.49037 3.356444-8.438519 8.381629-3.413334 13.672296 13.710222 27.382519 27.382519 40.770371 41.415112 6.257778 6.580148 5.556148 13.577481-0.891259 20.043851-19.342222 19.380148-38.684444 38.798222-57.931852 58.273186-7.395556 7.49037-14.298074 7.130074-22.167704 0.189629-19.626667-17.256296-24.424296-17.256296-43.899259 0-7.623111 6.712889-14.791111 8.059259-22.281482 0.549926a11958.689185 11958.689185 0 0 1-57.98874-58.273185c-7.338667-7.433481-6.921481-14.980741 0.417185-22.319407 11.984593-12.041481 23.912296-24.177778 35.97274-36.200297 2.218667-2.218667 4.323556-5.95437 7.983408-4.702815 4.020148 1.327407 2.654815 5.613037 2.730667 8.666075 0.18963 11.396741 0.910222 22.831407-0.132741 34.095407-1.232593 13.653333 4.551111 17.464889 17.085629 16.611556 12.193185-0.891259 24.500148-0.208593 36.73126-0.208593h35.346963c19.759407-0.037926 19.759407-0.037926 19.759407-20.593778 0.037926-11.396741-0.018963-22.755556 0.113778-34.133333zM621.947259 40.391111c-8.931556-8.874667-8.040296-17.066667 0.663704-25.694815 18.223407-17.863111 36.219259-35.991704 53.94963-54.328889 9.386667-9.803852 17.142519-8.722963 26.358518 0.322371 15.872 15.54963 23.36237 15.54963 39.253333-0.094815 9.291852-9.102222 17.445926-10.031407 26.680889-0.644741 18.223407 18.526815 36.636444 36.882963 54.954667 55.333926 3.375407 3.413333 6.257778 7.149037 6.428444 13.330963-0.682667 1.687704-1.099852 4.911407-2.901333 6.769778-14.089481 14.620444-28.16 29.335704-42.894222 43.311407-6.769778 6.390519-7.49037-0.417185-7.604148-5.309629-0.227556-12.781037-0.474074-25.6 0-38.381037 0.32237-9.53837-2.920296-13.824-12.932741-13.672297a3408.914963 3408.914963 0 0 1-83.437037 0.018963c-8.931556-0.075852-12.875852 3.204741-12.572444 12.515556 0.474074 12.762074 0.18963 25.6 0 38.362074-0.037926 3.053037 1.289481 7.547259-2.996149 8.343704-2.010074 0.379259-5.006222-2.180741-6.864592-4.039111-12.136296-11.946667-24.007111-24.158815-36.086519-36.143408z m242.55526 15.68237c17.882074 18.185481 35.84 36.257185 53.930666 54.234075 8.609185 8.609185 8.704 16.725333 0.417185 25.92237-15.68237 17.351111-15.606519 23.893333 0.322371 42.154667 7.168 8.154074 8.078222 15.530667 0.113778 23.514074-18.962963 19.038815-37.925926 38.153481-56.850963 57.249185-3.072 3.072-6.371556 5.650963-11.946667 6.333629-1.649778-0.682667-4.835556-1.061926-6.693926-2.844444-14.923852-14.468741-29.847704-28.880593-44.145778-43.956148-6.295704-6.674963 0.132741-7.623111 5.12-7.68 13.615407-0.18963 27.32563-0.512 40.941037 0.018963 9.974519 0.379259 13.141333-3.792593 12.970667-13.425778a2635.832889 2635.832889 0 0 1 0-80.971852c0.170667-10.012444-4.039111-13.463704-13.463704-13.160296-12.705185 0.379259-25.41037 0.113778-38.115555 0-3.147852-0.056889-7.205926 1.061926-8.988445-2.465185-1.953185-3.868444 2.085926-5.840593 4.171852-8.002371 12.231111-12.515556 24.803556-24.632889 36.882963-37.262222 8.817778-9.234963 16.820148-8.343704 25.372444 0.341333h-0.037925zM645.783704 95.762963c6.144 6.712889-1.422222 7.49037-5.878519 7.585185a562.896593 562.896593 0 0 1-36.750222 0.075852c-10.524444-0.417185-15.54963 3.128889-15.322074 14.563556 0.474074 26.510222 0.341333 53.001481 0.056889 79.530666-0.113778 9.557333 3.280593 13.880889 13.198222 13.50163 12.667259-0.512 25.41037-0.132741 38.115556-0.037926 2.692741 0.037926 6.049185-0.682667 7.698963 2.199704 1.839407 3.166815-1.042963 5.252741-2.920297 7.130074-13.236148 13.463704-26.548148 26.832593-39.973926 40.163555-7.092148 7.016296-14.108444 6.068148-20.916148-0.83437-18.944-19.095704-37.850074-38.248296-56.945778-57.192296-8.495407-8.419556-7.661037-15.966815 0.094815-24.519112 17.047704-18.887111 17.104593-23.703704-0.189629-42.742518-7.547259-8.324741-7.983407-15.341037-0.018963-23.267556 19.057778-18.962963 37.963852-38.096593 56.96474-57.192296 3.053037-3.015111 6.390519-5.594074 12.325926-5.688889 1.441185 0.549926 4.645926 0.872296 6.466371 2.654815 14.885926 14.430815 30.01837 28.728889 43.994074 44.069926zM843.434667 26.055111c-1.744593 1.422222-3.318519 0.360296-4.47526-1.536-16.801185-27.97037-43.292444-46.952296-65.042963-70.33363-12.117333-13.008593-22.186667-12.420741-35.555555-0.568888-15.246222 13.463704-15.68237 13.463704-30.094222 0.606814-14.487704-12.875852-24.367407-12.894815-38.001778 0.587852a4719.578074 4719.578074 0 0 0-52.906667 53.210074c-2.920296 2.996148-5.195852 6.674963-7.812741 9.974519-2.294519 2.939259-0.474074 10.24-6.807703 8.628148-4.873481-1.270519-5.916444-7.016296-6.295704-11.794963-0.625778-7.68 3.26163-13.539556 8.438519-18.735407 21.333333-21.428148 42.477037-42.989037 63.962074-64.18963 11.472593-11.339852 21.617778-11.207111 33.317926-0.493037 18.830222 17.21837 22.376296 17.21837 40.884148 0.170667 11.889778-10.998519 21.485037-11.169185 33.147259 0.417185 21.845333 21.541926 43.33037 43.444148 64.967111 65.175704 4.456296 4.494222 7.812741 9.481481 7.452445 16.213333-0.18963 4.854519-1.251556 9.443556-5.176889 12.667259z m103.670518 151.608889c8.798815 9.765926 11.719111 20.48 2.275556 30.416593-22.755556 24.007111-46.098963 47.407407-70.049185 70.238814-8.609185 8.154074-19.304296 7.983407-29.544297-3.109926 8.173037-2.313481 14.298074-5.385481 19.361185-10.543407 18.204444-18.545778 36.769185-36.750222 54.878815-55.409778 12.041481-12.363852 11.927704-24.594963 0.493037-37.546666-12.591407-14.298074-12.572444-16.156444 0.417185-30.606223 11.131259-12.401778 10.998519-23.836444-0.815407-36.086518-9.500444-9.879704-18.830222-20.005926-29.051259-29.089185-13.577481-12.079407-22.983111-28.918519-41.377185-35.650371-5.30963-1.934222-1.289481-5.461333 1.460148-7.149037 10.202074-6.257778 18.849185-2.901333 26.605037 4.892445 21.674667 21.769481 43.482074 43.425185 64.910222 65.403259 11.188148 11.491556 10.884741 21.371259 0 33.564444-17.578667 19.64563-17.692444 20.442074 0.436148 40.656593zM584.135111 43.235556c-2.161778 1.839407-4.835556 3.109926-6.826667 5.082074-19.380148 19.361185-38.912 38.608593-57.912888 58.368-10.543407 10.922667-9.936593 22.319407 0.360296 34.038518 14.14637 16.080593 14.317037 16.952889-0.037926 32.597333-7.983407 8.685037-12.09837 19.437037-4.171852 28.065186 22.907259 24.974222 45.283556 50.688 72.666074 71.130074 1.782519 1.327407 5.063111 1.156741 5.006222 4.096-0.056889 3.337481-3.053037 4.702815-5.688889 5.594074-10.05037 3.337481-18.488889 0.227556-25.713777-7.054222-21.010963-21.048889-42.17363-42.021926-62.957037-63.336297-11.245037-11.567407-10.922667-22.812444 0-35.081481 16.801185-18.962963 16.801185-19.759407-0.360297-39.632593-10.714074-12.439704-10.619259-23.077926 1.061926-35.024592 20.859259-21.276444 41.984-42.249481 62.938074-63.412149 4.778667-4.854519 10.107259-8.476444 18.166519-8.950518 3.944296 1.21363 10.543407 1.232593 12.079407 6.731852 1.763556 6.276741-5.783704 4.361481-8.647111 6.826666l0.037926-0.037925z m19.057778 243.351703c6.068148-1.327407 3.811556 5.006222 5.688889 7.698963 2.142815 3.034074 4.039111 6.409481 6.637037 9.045334 18.887111 19.209481 37.774222 38.456889 57.021629 57.306074 12.155259 11.889778 21.504 11.510519 34.360889-0.265482 14.677333-13.463704 16.668444-13.577481 31.364741 0.265482 8.798815 8.286815 19.057778 13.349926 28.918519 4.683851 24.462222-21.504 47.710815-44.335407 68.664888-69.385481 2.351407-2.787556 1.270519-10.277926 7.642075-7.509333a7.205926 7.205926 0 0 1 0.83437 0.398222c3.849481 2.275556 4.28563 7.471407 4.323555 12.060444 0.170667 5.802667-2.104889 10.524444-5.669925 14.639408a44.581926 44.581926 0 0 1-1.611852 1.706666c-21.636741 21.82637-43.064889 43.804444-65.061926 65.270519-11.624296 11.377778-21.522963 10.998519-33.526519 0.284444-20.347259-18.147556-20.347259-18.147556-40.201481-0.379259-12.250074 10.998519-22.016 11.624296-33.526519 0.398222-21.997037-21.428148-43.482074-43.425185-65.042963-65.289481-5.935407-6.011259-9.367704-13.141333-6.883555-21.883259 1.024-3.602963 2.180741-8.154074 6.068148-9.045334z"  horiz-adv-x="1024" />

    
    <glyph glyph-name="zu" unicode="&#58898;" d="M512.036571-54.85714299999995c-70.546286 0-365.714286 276.589714-365.714285 548.571429a365.714286 365.714286 0 0 0 731.428571 0c0-271.981714-295.168-548.571429-365.714286-548.571429zM512.036571-128c-77.604571 0-402.285714 309.796571-402.285714 614.4a402.285714 402.285714 0 1 0 804.571429 0c0-304.603429-324.681143-614.4-402.285715-614.4z m0 950.857143a329.142857 329.142857 0 0 1-329.142857-329.142857c0-229.778286 243.382857-512 329.142857-512 81.225143 0 329.142857 279.954286 329.142858 512a329.142857 329.142857 0 0 1-329.142858 329.142857z m0-438.857143a109.714286 109.714286 0 1 0 109.714286 109.714286 109.714286 109.714286 0 0 0-109.714286-109.714286z"  horiz-adv-x="1024" />

    
    <glyph glyph-name="guanbi" unicode="&#58993;" d="M573.44 383.872l237.888-237.696a43.328 43.328 0 0 0 0-59.712 43.392 43.392 0 0 0-59.712 0L513.728 324.16 265.856 76.288a44.672 44.672 0 0 0-61.568 0 44.672 44.672 0 0 0 0 61.568L452.16 385.728 214.208 623.552a43.328 43.328 0 0 0 0 59.648 43.392 43.392 0 0 0 59.712 0l237.952-237.76 246.272 246.272a44.672 44.672 0 0 0 61.568 0 44.672 44.672 0 0 0 0-61.568L573.44 383.872z"  horiz-adv-x="1024" />

    
    </font>
</defs>
</svg>
